Ссылка на приватное зеркало всего за 1$. Внимание количество ограничено!!!

iTunes

iTunes

iTunes

1

iTunes

iTunes

iTunes

WEBRip

iTunes

30
pack

$ от Little Big

ВАЖНО

!!Акция!!

Alien_RageХит недели

RePack

Resident Evil 21

ИГРА 18+

pack

RePack

jed

!!Акция!!

Alien_Rage

RePack

fifa19

RePack

Assassins Creed: Odyssey

RePack

NEED FOR SPEED™ PAYBACK

4 сезон

9 сезон

Бесстыжие 9 сезон

Все сериалы

все сериалы на PB.wtf

RePack

FAR CRY 5
  

Надежда / Сезон: 1 / Серии: 1-16 из 16 (Елена Хазанова) [2020, Драма, криминал, боевик, WEBRip-AVC, (Версия 18+)] piratbit.pw

Надежда через торрент piratbit.pw

Раздают: 18 [ 10 MB/s ] Качают: 17 [ 6 MB/s ]
Размер: 5.56 GB | Добавлен: 6 ч. назад | Торрент скачан:27 раз
Скачать  

18-06-2020 02:44 Надежда Скачать торрент  

Надежда
Год выпуска: 2020
Страна: Россия
Студия: START STUDIO, СУПЕР продакшн, Киностудия "Yellow, Black and White"
Жанр: Драма, криминал, боевик
Продолжительность: ~ 00:25:00
Перевод: Не требуется
Субтитры: отсутствуют

Режиссер: Елена Хазанова



В ролях: Виктория Исакова, Александр Кузьмин (II), Вероника Корниенко, Ася Громова, Алексей Морозов, Алексей Гуськов, Юлия Мельникова, Алексей Гришин, Алексей Мотов, Тимофей Кресло, Юлия Ауг, Евгений Фадин, Мария Голицына, Елена Ветрова, Андрей Дерьков, Андрей Бобров, Даниил Осокин, Александр Недорезов, Кирилл Ермичёв, Виктория Тарасова, Иван Бурлачко, Юрий Анпилогов, Павел Шумский, Андрей Нагорнов, Эльмира Мирэль, Олег Каменщиков, Олег Савостюк (II), Андрей Стоянов, Валерий Жуков, Олег Бойко, Сергей Горбачёв (II), Савва Гусев, Лилия Кочкарева, Екатерина Лисовая, Юрий Гумиров, Евгений Джураев, Алексей Жиров, Михаил Панюков, Иван Прилль

Описание: Надежда – на первый взгляд обычная москвичка. Любящий муж-музыкант, дочь – задиристый подросток, работа – стюардесса в частной авиации. Вот только вместо полетов на бизнес-джетах Надежда выполняет задания гораздо более опасные: она – хитроумный спецагент и безжалостный киллер. Надя беспрекословно выполняет все заказы своего руководителя, когда-то вытащившего ее, совсем юную, из тюрьмы. Но Надежда устала вести двойную жизнь и, похоже, готовит собственную спецоперацию.

Качество: WEBRip-AVC
Формат: MKV

Видео: MPEG-4 AVC, ~ 1600 Кбит/с, 1024x576, 25 кадр/с
Аудио: 48.0 kHz, AC3 Dolby Digital, 2/0 (L,R) ch, ~ 192 kbps
скриншот  скриншот  скриншот  скриншот  

General
Unique ID : 200709678722259875240702707098261756535 (0x96FF472D7ED04EFE9D4741E68AA99A77)
Complete name : F:\Надежда.(2020).WEBRip.(AVC).Files-x\01.Nadezhda.(2020).WEBRip.(AVC).by.Серый1779.Files-x.mkv
Format : Matroska
Format version : Version 2
File size : 347 MiB
Duration : 27 min 4 s
Overall bit rate : 1 793 kb/s
Encoded date : UTC 2020-06-17 22:00:53
Writing application : mkvmerge v7.8.0 ('River Man') 32bit built on Apr 3 2015 12:11:22
Writing library : libebml v1.3.1 + libmatroska v1.4.2

Video
ID : 1
Format : AVC
Format/Info : Advanced Video Codec
Format profile : High@L4.1
Format settings : CABAC / 9 Ref Frames
Format settings, CABAC : Yes
Format settings, RefFrames : 9 frames
Codec ID : V_MPEG4/ISO/AVC
Duration : 27 min 4 s
Bit rate : 1 600 kb/s
Width : 1 024 pixels
Height : 576 pixels
Display aspect ratio : 16:9
Frame rate mode : Constant
Frame rate : 25.000 FPS
Color space : YUV
Chroma subsampling : 4:2:0
Bit depth : 8 bits
Scan type : Progressive
Bits/(Pixel*Frame) : 0.109
Stream size : 303 MiB (87%)
Writing library : x264 core 146 r2538 121396c
Encoding settings : cabac=1 / ref=9 / deblock=1:-2:-1 / analyse=0x3:0x133 / me=umh / subme=9 / psy=1 / psy_rd=1.00:0.15 / mixed_ref=1 / me_range=32 / chroma_me=1 / trellis=2 / 8x8dct=1 / cqm=0 / deadzone=21,11 / fast_pskip=0 / chroma_qp_offset=-3 / threads=18 / lookahead_threads=3 / sliced_threads=0 / nr=0 / decimate=1 / interlaced=0 / bluray_compat=0 / constrained_intra=0 / bframes=9 / b_pyramid=2 / b_adapt=2 / b_bias=0 / direct=1 / weightb=1 / open_gop=0 / weightp=2 / keyint=250 / keyint_min=25 / scenecut=40 / intra_refresh=0 / rc=2pass / mbtree=0 / bitrate=1600 / ratetol=1.0 / qcomp=0.60 / qpmin=0 / qpmax=69 / qpstep=4 / cplxblur=20.0 / qblur=0.5 / ip_ratio=1.40 / pb_ratio=1.30 / aq=2:1.00
Default : Yes
Forced : No
Color range : Limited
Color primaries : BT.709
Transfer characteristics : BT.709
Matrix coefficients : BT.709

Audio
ID : 2
Format : AC-3
Format/Info : Audio Coding 3
Format settings, Endianness : Big
Codec ID : A_AC3
Duration : 27 min 4 s
Bit rate mode : Constant
Bit rate : 192 kb/s
Channel(s) : 2 channels
Channel positions : Front: L R
Sampling rate : 48.0 kHz
Frame rate : 31.250 FPS (1536 SPF)
Bit depth : 16 bits
Compression mode : Lossy
Stream size : 37.2 MiB (11%)
Service kind : Complete Main
Default : Yes
Forced : No

Когда раздача ведётся путём добавления новых серий, при каждом добавлении создётся новый торрент. Чтобы начать докачку новой серии, пользователям необходимо сделать следующее:
(1) остановить скачивание,
(2) удалить старый торрент у себя из клиента (старые серии удалять не надо),
(3) скачать новый торрент и запустить его у себя в клиенте вместо старого, при этом указать клиенту путь в старую папку, куда и должно происходить скачивание новых серий.
Ваш клиент при этом должен произвести хеширование (проверку) старой папки (если не производит сам - помогите ему сделать это), и будет докачивать только те серии, которых у вас ещё нет. Старые серии при этом не удаляются, а продолжают раздаваться!
Eсли вы уже удалили старые серии, то предотвратить повторную закачку старых серий можно, отжав галочку в соответсвующих местах при запуске нового торрента. По возможности, желательно не удалять старые серии как можно дольше, чтобы релизер не столько продолжал раздавать старые серии, а смог сконцентрироваться на новых.
piratbit.pw



Скачать Надежда через торрент https://i112.fastpic.ru/big/2020/0618/34/6a732c21c1af5b943abc4c040cde9934.jpg Скачать фильм Надежда через торрент бесплантно в хорошем качестве Описание: Надежда – на первый взгляд обычная москвичка. Любящий муж-музыкант, дочь – задиристый подросток, работа – стюардесса в частной ... 10 10 8
Торрент: Зарегистрирован [2020-08-06 08:29] · скачан: 27 раз
Статус: не проверено
Размер: 5.56 GB
Как cкачать? Как скачать Надежда через торрент | qTorrent

% Раздел Тема Автор DL S | L
Наши сериалы [ 20.71 GB ] Надежда / Сезон: 1 / Серии: 1-16 из 16 [2020 WEBRip 1080p ] bober100 Скачать
18 | 33
Наши сериалы [ 5.47 GB ] Надежда / Сезон: 1 / Серии: 1-16 из 16 [2020 WEBRip ] bober100 Скачать
36 | 10
Наши сериалы [ 10.05 GB ] Надежда / Сезон: 1 / Серии: 1-14 из 16 [2020 WEBRip 720p ] bober100 Скачать
6 | 7
Зарубежные сериалы [ 16.2 GB ] В надежде на спасение / Saving Hope / Сезон: 5 / Серии: 1-18 из из 18 [2016 WEBRip 720p] [MVO] killermax2013 Скачать
1 | 0
Зарубежные сериалы [ 20.85 GB ] В надежде на спасение / Saving Hope / Сезон: 4 / Серии: 1-18 из из 18 [2015-2016 WEBRip 720p] [MVO] killermax2013 Скачать
1 | 0
Наши сериалы [ 8.09 GB ] Я ему верю! /Сезон: 1 /Серии: 16 из 16 [2012 IPTVRip ] -=Cherry=- Скачать
1 | 0


Последний раз редактировалось: bober100 (2020-07-23 17:53), всего редактировалось 2 раз(а)

28-11-2019 20:33  

Отключить всю рекламу на сайте

19-06-2020 12:00 Надежда Скачать торрент  

Cериал супер Виктория Исакова как всегда на высоте. Это не русская Никита. Думаю народ посмотрит с удовольствиемpiratbit.pw



    Дорогой пользователь! Огромная просьба, поблагодарите релизера, оцените раздачу и оставьте свои комментарий, если Вы скачали Надежда через торрент бесплатно! Внесите свою лепту в развитие PiratBit!
    Комментировать посты могут только пользователи прошедшие не сложную регистрацию
    Показать сообщения:    

    Надежда через торрент
    Скачать бесплатно Надежда
    Надежда скачать торрент
    Надежда смотреть онлайн
    Cкачать фильм Надежда бесплатно
    Надежда скачать торрент в хорошем качестве
    Надежда смотреть онлайн бесплатно в хорошем качестве


    Вы не можете начинать темы
    Вы не можете отвечать на сообщения
    Вы не можете редактировать свои сообщения
    Вы не можете удалять свои сообщения
    Вы не можете голосовать в опросах
    Вы не можете прикреплять файлы к сообщениям
    Вы можете скачивать файлы