Ссылка на приватное зеркало нашего сайта всего за 1$. Внимание количество ограничено!!!

2 сезон

iTunes

1 сезон

1

2 сезон

2 сезон

iTunes

1 сезон

RePack

30

Ultimate

ВАЖНО

ИГРА 18+

pack

RePack

MK11
pack

Забери бонус

RePack

jed

!!Акция!!

Alien_Rage

RePack

fifa19

RePack

Assassins Creed: Odyssey

RePack

NEED FOR SPEED™ PAYBACK

4 сезон

9 сезон

Бесстыжие 9 сезон

Все сериалы

все сериалы на PB.wtf

RePack

FAR CRY 5
  

Убийственная команда / The Kill Team (Дэн Краусс) [2019, Боевик, триллер, драма, военный, BDRip-AVC] DUB [iTunes] piratbit.pw

Убийственная команда через торрент piratbit.pw

Размер: 1.42 GB | Добавлен: 5 мес. 8 д. назад | Торрент скачан:107 раз
Скачать  

17-06-2020 08:53 Убийственная команда Скачать торрент  

Убийственная команда | The Kill Team
Год выпуска: 2019
Страна: Испания, США
Студия: Nostromo Pictures, Temple Hill Entertainment
Жанр: Боевик, триллер, драма, военный
Продолжительность: 01:27:32
Перевод: Дублированный | iTunes
Субтитры: Русские (Forced, Full)

Режиссер: Дэн Краусс

rating

В ролях: Александр Скарсгард, Нат Вулф, Адам Лонг, Джонатан Уайтселл, Брайан «Сене» Марк, Ози Икхайл, Роб Морроу, Анна Франколини, Оливер Ричи, Йен Кейр Аттард и др.

Описание: Солдат Эндрю Бриггман был отправлен в Афганистан в 2009 году и стал свидетелем жестоких убийств мирных граждан другими новобранцами во главе с сержантом Диксом. Когда Бриггман начинает задумываться о том, чтобы доложить начальству о происходящем, то осознает, что вполне может стать следующей жертвой собственной команды...

Качество: BDRip-AVC
Формат: MKV

Видео: 832x348 (2,40:1), 23.976 fps, MPEG-4 AVC ~ 1936 Кbps avg, 0.279 bit/pixel
Аудио: AC3, 48 kHz, 6 ch, ~384.00 kbps avg | русский | iTunes
скриншот  скриншот  скриншот  скриншот  скриншот  

Общее
Уникальный идентификатор : 4734835229012680651040415857995542918 (0x38FE5667A305D3FC4DF9E0E1369F186)
Полное имя : The.Kill.Team.2019.BDRip.1.42Gb.x264.mkv
Формат : Matroska
Версия формата : Version 4
Размер файла : 1,42 Гбайт
Продолжительность : 1 ч. 27 м.
Общий поток : 2 318 Кбит/сек
Название фильма : Убийственная команда / The Kill Team (2019)
Дата кодирования : UTC 2020-06-17 08:39:07
Программа кодирования : mkvmerge v47.0.0 ('Black Flag') 64-bit
Библиотека кодирования : libebml v1.3.10 + libmatroska v1.5.2
Обложка : Yes
Attachments : cover.jpg

Видео
Идентификатор : 1
Формат : AVC
Формат/Информация : Advanced Video Codec
Профиль формата : High@L4.1
Настройки формата : CABAC / 12 Ref Frames
Параметр CABAC формата : Да
Параметр RefFrames формата : 12 кадров
Идентификатор кодека : V_MPEG4/ISO/AVC
Продолжительность : 1 ч. 27 м.
Битрейт : 1 936 Кбит/сек
Ширина : 832 пикселя
Высота : 348 пикселей
Соотношение сторон : 2,40:1
Режим частоты кадров : Постоянный
Частота кадров : 23,976 (24000/1001) кадра/сек
Цветовое пространство : YUV
Субдискретизация насыщенности : 4:2:0
Битовая глубина : 8 бит
Тип развёртки : Прогрессивная
Бит/(Пиксели*Кадры) : 0.279
Размер потока : 1,18 Гбайт (83%)
Заголовок : #stillet
Библиотека кодирования : x264 core 152 r2851bm ba24899
Настройки программы : cabac=1 / ref=12 / deblock=1:-2:-2 / analyse=0x3:0x113 / me=umh / subme=11 / psy=1 / psy_rd=1.00:0.15 / mixed_ref=1 / me_range=32 / chroma_me=1 / trellis=2 / 8x8dct=1 / cqm=0 / deadzone=21,11 / fast_pskip=0 / chroma_qp_offset=-3 / threads=10 / lookahead_threads=3 / sliced_threads=0 / nr=0 / decimate=0 / interlaced=0 / bluray_compat=0 / constrained_intra=0 / bframes=12 / b_pyramid=2 / b_adapt=2 / b_bias=0 / direct=3 / weightb=1 / open_gop=0 / weightp=2 / keyint=240 / keyint_min=23 / scenecut=40 / intra_refresh=0 / rc=2pass / mbtree=0 / bitrate=1936 / ratetol=1.0 / qcomp=0.60 / qpmin=0 / qpmax=69 / qpstep=4 / cplxblur=20.0 / qblur=0.5 / ip_ratio=1.40 / pb_ratio=1.30 / aq=1:1.00
Язык : English
Default : Да
Forced : Нет

Аудио
Идентификатор : 2
Формат : AC-3
Формат/Информация : Audio Coding 3
Коммерческое название : Dolby Digital
Идентификатор кодека : A_AC3
Продолжительность : 1 ч. 27 м.
Вид битрейта : Постоянный
Битрейт : 384 Кбит/сек
Каналы : 6 каналов
Channel layout : L R C LFE Ls Rs
Частота : 48,0 КГц
Частота кадров : 31,250 кадров/сек (1536 SPF)
Метод сжатия : С потерями
Размер потока : 240 Мбайт (17%)
Заголовок : iTunes
Язык : Russian
Default : Да
Forced : Да

Текст #1
Идентификатор : 3
Формат : UTF-8
Идентификатор кодека : S_TEXT/UTF8
Идентификатор кодека/Информация : UTF-8 Plain Text
Продолжительность : 43 м. 37 с.
Битрейт : 0 бит/сек
Count of elements : 9
Размер потока : 312 байт (0%)
Заголовок : Forced
Язык : Russian
Default : Да
Forced : Да

Текст #2
Идентификатор : 4
Формат : UTF-8
Идентификатор кодека : S_TEXT/UTF8
Идентификатор кодека/Информация : UTF-8 Plain Text
Продолжительность : 1 ч. 22 м.
Битрейт : 68 бит/сек
Count of elements : 873
Размер потока : 41,2 Кбайт (0%)
Заголовок : Full
Язык : Russian
Default : Нет
Forced : Нет

Меню
00:00:00.000 : :Chapter 01
00:03:28.917 : :Chapter 02
00:09:48.004 : :Chapter 03
00:16:32.533 : :Chapter 04
00:22:08.285 : :Chapter 05
00:30:03.218 : :Chapter 06
00:36:08.333 : :Chapter 07
00:41:25.107 : :Chapter 08
00:46:30.746 : :Chapter 09
00:49:54.825 : :Chapter 10
00:54:47.492 : :Chapter 11
00:58:57.826 : :Chapter 12
01:04:09.387 : :Chapter 13
01:08:43.286 : :Chapter 14
01:12:09.617 : :Chapter 15
01:17:00.491 : :Chapter 16

piratbit.pw



Скачать Убийственная команда через торрент https://i112.fastpic.ru/big/2020/0617/2c/7a8d21906a22949b2e551969b4b1a72c.jpg Скачать фильм Убийственная команда через торрент бесплантно в хорошем качестве Описание: Солдат Эндрю Бриггман был отправлен в Афганистан в 2009 году и стал свидетелем жестоких убийств мирных граждан другими ... 10 10 4
Торрент: Зарегистрирован [2020-06-17 08:53] · скачан: 107 раз
Статус: √ проверено
Размер: 1.42 GB
Как cкачать? Как скачать Убийственная команда через торрент | qTorrent

% Раздел Тема Автор DL S | L
Фильмы 2019-2020 [DVDrip, WEB-DLRip, HDrip] (DUB, MVO) [ 2.14 GB ] Убийственная команда / The Kill Team [2019 военный BDRip-AVC] bober100 Скачать
1 | 0
Фильмы 2019-2020 [DVDrip, WEB-DLRip, HDrip] (DUB, MVO) [ 1.42 GB ] Убийственная команда / The Kill Team [2019 военный BDRip] - Twi7ter Скачать
14 | 0
Фильмы 2019-2020 [DVDrip, WEB-DLRip, HDrip] (DUB, MVO) [ 743 MB ] Убийственная команда / The Kill Team [2019 военный HDRip] bober100 Скачать
2 | 0
Фильмы 2019-2020 [DVDrip, WEB-DLRip, HDrip] (DUB, MVO) [ 1.46 GB ] Убийственная команда / The Kill Team [2019 военный BDRip] bober100 Скачать
3 | 0
Фильмы [HD 720p, 1080p] (Хороший звук DUB, MVO) [ 9.65 GB ] Убийственная команда / The Kill Team [2019 военный BDRip 1080p] bober100 Скачать
2 | 0
Фильмы [HD 720p, 1080p] (Хороший звук DUB, MVO) [ 4.33 GB ] Убийственная команда / The Kill Team [2019 военный BDRip 720p] bober100 Скачать
1 | 0

28-11-2019 20:33  

Отключить всю рекламу на сайте

    Дорогой пользователь! Огромная просьба, поблагодарите релизера, оцените раздачу и оставьте свои комментарий, если Вы скачали Убийственная команда через торрент бесплатно! Внесите свою лепту в развитие PiratBit!
    Комментировать посты могут только пользователи прошедшие не сложную регистрацию
    Показать сообщения:    

    Убийственная команда через торрент
    Скачать бесплатно Убийственная команда
    Убийственная команда скачать торрент
    Убийственная команда смотреть онлайн
    Cкачать фильм Убийственная команда бесплатно
    Убийственная команда скачать торрент в хорошем качестве
    Убийственная команда смотреть онлайн бесплатно в хорошем качестве


    Вы не можете начинать темы
    Вы не можете отвечать на сообщения
    Вы не можете редактировать свои сообщения
    Вы не можете удалять свои сообщения
    Вы не можете голосовать в опросах
    Вы не можете прикреплять файлы к сообщениям
    Вы можете скачивать файлы