Ссылка на приватное зеркало нашего сайта всего за 1$. Внимание количество ограничено!!!

2 сезон

iTunes

1 сезон

1

2 сезон

2 сезон

iTunes

1 сезон

RePack

30

Новинка

ВАЖНО

ИГРА 18+

pack

RePack

MK11
pack

Забери бонус

RePack

jed

!!Акция!!

Alien_Rage

RePack

fifa19

RePack

Assassins Creed: Odyssey

RePack

NEED FOR SPEED™ PAYBACK

4 сезон

9 сезон

Бесстыжие 9 сезон

Все сериалы

все сериалы на PB.wtf

RePack

FAR CRY 5
  

Матиас и Максим / Matthias et Maxime (Ксавье Долан) [2019 г., драма, HDRip, Профессиональный многоголосый закадровый "iTunes"] piratbit.pw

Матиас и Максим через торрент piratbit.pw

Размер: 728 MB | Добавлен: 5 мес. 9 д. назад | Торрент скачан:9 раз
Скачать  

15-06-2020 18:22 Матиас и Максим Скачать торрент  

Матиас и Максим / Matthias et Maxime
Год выпуска: 2019
Страна: Канада / Fonds Quebecor, MK2, PHI Studio
Жанр: драма
Продолжительность: 02:00:20
Перевод: Профессиональный многоголосый закадровый (iTunes)

Режиссер: Ксавье Долан

rating

В ролях: Габриэль Д’Альмейда Фрейтас, Ксавье Долан, Пьер-Люк Фанк, Самуэль Готье, Антуан Пилон, Адиб Альхалидей, Энн Дорваль, Мишлин Бернар, Мэрилин Кастонгуэй, Катрин Брюне

Описание: Компания беспечных друзей проводит время, как любые двадцатипятилетние: устраивают вечеринки, дурачатся, спорят, танцуют до упаду. Все меняют съемки короткометражного фильма, в котором двоим из них предстоит поцеловаться. Это переворачивает представление героев о мире, собственной жизни и вызывает водоворот непредсказуемых событий.

Качество: HDRip
Формат: AVI
Видео кодек: DivX
Аудио кодек: MP3
Видео: 640x344 (1.86:1), 23.976 fps, DivX Codec 4.x ~708 kbps avg, 0.13 bit/pixel
Аудио: 48 kHz, MPEG Layer 3, 2 ch, ~128.00 kbps avg
скриншот   скриншот   скриншот   скриншот   скриншот   скриншот   скриншот   скриншот  

Общее
Полное имя : F:\ФИЛЬМЫ\Матиас и Максим.2019.HDRip.avi
Формат : AVI
Формат/Информация : Audio Video Interleave
Размер файла : 728 Мбайт
Продолжительность : 2 ч. 0 м.
Общий поток : 846 Кбит/сек
Программа кодирования : VirtualDubMod 1.5.10.3 | www.virtualdub-fr.org || (build 2550/release)
Библиотека кодирования : VirtualDubMod build 2550/release

Видео
Идентификатор : 0
Формат : MPEG-4 Visual
Профиль формата : Advanced Simple@L5
Настройки формата : BVOP3 / GMC3 / QPel
Параметр BVOP формата : 3
Параметр QPel формата : Да
Параметр GMC формата : 3 точки перехода
Параметр матрицы формата : Default (MPEG)
Идентификатор кодека : DIVX
Идентификатор кодека/Информация : Project Mayo
Идентификатор кодека/Подсказка : DivX 4
Продолжительность : 2 ч. 0 м.
Битрейт : 709 Кбит/сек
Ширина : 640 пикселей
Высота : 344 пикселя
Соотношение сторон : 1,85:1
Частота кадров : 23,976 (24000/1001) кадра/сек
Цветовое пространство : YUV
Субдискретизация насыщенности : 4:2:0
Битовая глубина : 8 бит
Тип развёртки : Прогрессивная
Метод сжатия : С потерями
Бит/(Пиксели*Кадры) : 0.134
Размер потока : 610 Мбайт (84%)
Библиотека кодирования : XviD 1.2.1 (UTC 2008-12-04)

Аудио
Идентификатор : 1
Формат : MPEG Audio
Версия формата : Version 1
Профиль формата : Layer 3
Настройки формата : Joint stereo
Идентификатор кодека : 55
Идентификатор кодека/Подсказка : MP3
Продолжительность : 2 ч. 0 м.
Вид битрейта : Постоянный
Битрейт : 128 Кбит/сек
Каналы : 2 канала
Частота : 48,0 КГц
Частота кадров : 41,667 кадра/сек (1152 SPF)
Метод сжатия : С потерями
Размер потока : 110 Мбайт (15%)
Выравнивание : Соединение по промежуткам
Продолжительность промежутка : 42 мс. (1,00 видеокадр)
Время предзагрузки промежутка : 504 мс.
Библиотека кодирования : LAME3.99r
Настройки программы : -m j -V 4 -q 2 -lowpass 17 -b 128

piratbit.pw



Скачать Матиас и Максим через торрент http://pic1.kartinco.top/images/12/6opi6.jpg Скачать фильм Матиас и Максим через торрент бесплантно в хорошем качестве Описание: Компания беспечных друзей проводит время, как любые двадцаятилетние: устраивают вечеринки, дурачатся, спорят, танцуют до ... 7 10 1
Торрент: Зарегистрирован [2020-06-15 18:22] · скачан: 9 раз
Статус: √ проверено
Размер: 728 MB
Как cкачать? Как скачать Матиас и Максим через торрент | qTorrent

% Раздел Тема Автор DL S | L
Фильмы 2019-2020 [DVDrip, WEB-DLRip, HDrip] (DUB, MVO) [ 746 MB ] Матиас и Максим / Matthias et Maxime [2019 WEB-DLRip] MVO bober100 Скачать
1 | 0
Фильмы (WEB-DL 720p, 1080p) [ 4.06 GB ] Матиас и Максим / Matthias et Maxime [2019 WEB-DL 720p] MVO bober100 Скачать
1 | 0
Фильмы 2019-2020 [DVDrip, WEB-DLRip, HDrip] (DUB, MVO) [ 1.46 GB ] Матиас и Максим / Matthias et Maxime [2019 BDRip] MVO bober100 Скачать
1 | 0

28-11-2019 20:33  

Отключить всю рекламу на сайте

16-06-2020 05:46 Матиас и Максим Скачать торрент  

Надеюсь Максим в этом фильме это все таки женское имяpiratbit.pw



    Дорогой пользователь! Огромная просьба, поблагодарите релизера, оцените раздачу и оставьте свои комментарий, если Вы скачали Матиас и Максим через торрент бесплатно! Внесите свою лепту в развитие PiratBit!
    Комментировать посты могут только пользователи прошедшие не сложную регистрацию
    Показать сообщения:    

    Матиас и Максим через торрент
    Скачать бесплатно Матиас и Максим
    Матиас и Максим скачать торрент
    Матиас и Максим смотреть онлайн
    Cкачать фильм Матиас и Максим бесплатно
    Матиас и Максим скачать торрент в хорошем качестве
    Матиас и Максим смотреть онлайн бесплатно в хорошем качестве


    Вы не можете начинать темы
    Вы не можете отвечать на сообщения
    Вы не можете редактировать свои сообщения
    Вы не можете удалять свои сообщения
    Вы не можете голосовать в опросах
    Вы не можете прикреплять файлы к сообщениям
    Вы можете скачивать файлы