Ссылка на приватное зеркало нашего сайта всего за 1$. Внимание количество ограничено!!!

2 сезон

iTunes

iTunes

1

iTunes

iTunes

iTunes

WEBRip

iTunes

30
pack

Новость дня

ВАЖНО

!!Акция!!

Alien_RageХит недели

RePack

Horizon Zero Dawn

ИГРА 18+

pack

RePack

jed

!!Акция!!

Alien_Rage

RePack

fifa19

RePack

Assassins Creed: Odyssey

RePack

NEED FOR SPEED™ PAYBACK

4 сезон

9 сезон

Бесстыжие 9 сезон

Все сериалы

все сериалы на PB.wtf

RePack

FAR CRY 5
  

Услышь меня (Василий Кузовлев) [2020, Приключения, драма, фантастика, WEB-DL 1080p] [IVI] piratbit.pw

Услышь меня через торрент piratbit.pw

Раздают: 1 [ 0 KB/s ]
Размер: 4.81 GB | Добавлен: 3 мес. 7 д. назад | Торрент скачан:106 раз
Скачать  

14-06-2020 17:08 Услышь меня Скачать торрент  

Услышь меня
Год выпуска: 2020
Страна: Россия
Выпущено: СИБИРЬ ФИЛЬМ
Жанр: Приключения, драма, фантастика
Продолжительность: 02:08:25
Перевод: Не требуется | Цифровая лицензия IVI
Субтитры: отсутствуют

Режиссер: Василий Кузовлев



В ролях: Тимур Хасанов, Ирина Алибекова, Евгений Мелядин, Марина Кузовлева, Шамиль Дайтов

Описание: 12-летний городской мальчик Вася вместе с родителями и старшей сестрой приезжает в деревню, в которой чудом уцелело несколько домов. Оставшиеся немногочисленные жители деревни живут без света, связи и прочих благ цивилизации. Но это совсем не мешает им быть счастливыми. Васю и его сестру ждут невероятные, захватывающие приключения, в том числе и сквозь время.

Качество: WEB-DL 1080p
Формат: MKV

Видео: MPEG-4 AVC, 5120 Kb/s, 1920x1014
Аудио: 48 kHz, AC3, 2/0 (L, R) ch, ~256 Kbps
скриншот  скриншот  скриншот  скриншот  

Complete name : Uslyish.menya.2018.WEB-DL.1080p.ELEKTRI4KA.UNIONGANG.mkv
Format : Matroska
Format version : Version 4 / Version 2
File size : 4.81 GiB
Duration : 2 h 8 min
Overall bit rate : 5 366 kb/s
Movie name : .ELEKTRI4KA.UNIONGANG.
Encoded date : UTC 2020-06-14 14:27:43
Writing application : mkvmerge v8.3.0 ('Over the Horizon') 64bit
Writing library : libebml v1.3.1 + libmatroska v1.4.2

Video
ID : 1
Format : AVC
Format/Info : Advanced Video Codec
Format profile : High@L4
Format settings, CABAC : Yes
Format settings, Reference frames : 4 frames
Codec ID : V_MPEG4/ISO/AVC
Duration : 2 h 8 min
Bit rate : 5 120 kb/s
Width : 1 920 pixels
Height : 1 014 pixels
Display aspect ratio : 1.893
Frame rate mode : Constant
Frame rate : 25.000 FPS
Color space : YUV
Chroma subsampling : 4:2:0
Bit depth : 8 bits
Scan type : Progressive
Bits/(Pixel*Frame) : 0.105
Stream size : 4.58 GiB (95%)
Title : .ELEKTRI4KA.UNIONGANG.
Writing library : x264 core 148
Encoding settings : cabac=1 / ref=3 / deblock=1:0:0 / analyse=0x3:0x113 / me=hex / subme=7 / psy=1 / psy_rd=1.00:0.00 / mixed_ref=1 / me_range=16 / chroma_me=1 / trellis=1 / 8x8dct=1 / cqm=0 / deadzone=21, 11 / fast_pskip=1 / chroma_qp_offset=-2 / threads=24 / lookahead_threads=4 / sliced_threads=0 / nr=0 / decimate=1 / interlaced=0 / bluray_compat=0 / constrained_intra=0 / bframes=6 / b_pyramid=2 / b_adapt=1 / b_bias=0 / direct=1 / weightb=1 / open_gop=0 / weightp=2 / keyint=50 / keyint_min=26 / scenecut=0 / intra_refresh=0 / rc_lookahead=40 / rc=2pass / mbtree=1 / bitrate=5120 / ratetol=1.0 / qcomp=0.60 / qpmin=0 / qpmax=69 / qpstep=4 / cplxblur=20.0 / qblur=0.5 / vbv_maxrate=7680 / vbv_bufsize=20480 / nal_hrd=none / filler=0 / ip_ratio=1.40 / aq=1:1.00
Default : Yes
Forced : No

Audio
ID : 2
Format : AC-3
Format/Info : Audio Coding 3
Mode extension : CM (complete main)
Format settings, Endianness : Big
Codec ID : A_AC3
Duration : 2 h 8 min
Bit rate mode : Constant
Bit rate : 256 kb/s
Channel(s) : 2 channels
Channel positions : Front: L R
Sampling rate : 48.0 kHz
Frame rate : 31.250 FPS (1536 spf)
Bit depth : 16 bits
Compression mode : Lossy
Stream size : 235 MiB (5%)
Title : IVI
Language : Russian
Default : Yes
Forced : No

Menu
00:00:00.000 : en:1
00:07:57.852 : en:2
00:11:51.335 : en:3
00:16:46.588 : en:4
00:22:17.627 : en:5
00:25:56.012 : en:6
00:32:11.637 : en:7
00:36:24.681 : en:8
00:44:39.300 : en:9
00:47:56.747 : en:10
00:56:41.813 : en:11
01:00:41.344 : en:12
01:05:41.352 : en:13
01:09:53.312 : en:14
01:18:51.558 : en:15
01:25:30.081 : en:16
01:35:31.682 : en:17
01:44:05.987 : en:18
01:55:41.599 : en:19
01:57:48.058 : en:20

piratbit.pw



Скачать Услышь меня через торрент https://d.radikal.ru/d21/2006/9f/965632716aa9.png Скачать фильм Услышь меня через торрент бесплантно в хорошем качестве Описание: 12-летний городской мальчик Вася вместе с родителями и старшей сестрой приезжает в деревню, в которой чудом уцелело несколько ... 10 10 2
Торрент: Зарегистрирован [2020-06-14 17:08] · скачан: 106 раз
Статус: T временная
Размер: 4.81 GB
Как cкачать? Как скачать Услышь меня через торрент | qTorrent

% Раздел Тема Автор DL S | L
T Наши новые фильмы 2018-2019 [ 1.46 GB ] Услышь меня [2020 WEB-DLRip] [IVI] bober100 Скачать
6 | 1

28-11-2019 20:33  

Отключить всю рекламу на сайте

05-07-2020 16:06 Услышь меня Скачать торрент  

Это кино для ТВ, как сериалы Первого канала, Россия и т.д. Фильм для старшего поколения).piratbit.pw



    Дорогой пользователь! Огромная просьба, поблагодарите релизера, оцените раздачу и оставьте свои комментарий, если Вы скачали Услышь меня через торрент бесплатно! Внесите свою лепту в развитие PiratBit!
    Комментировать посты могут только пользователи прошедшие не сложную регистрацию
    Показать сообщения:    

    Услышь меня через торрент
    Скачать бесплатно Услышь меня
    Услышь меня скачать торрент
    Услышь меня смотреть онлайн
    Cкачать фильм Услышь меня бесплатно
    Услышь меня скачать торрент в хорошем качестве
    Услышь меня смотреть онлайн бесплатно в хорошем качестве


    Вы не можете начинать темы
    Вы не можете отвечать на сообщения
    Вы не можете редактировать свои сообщения
    Вы не можете удалять свои сообщения
    Вы не можете голосовать в опросах
    Вы не можете прикреплять файлы к сообщениям
    Вы можете скачивать файлы