Ссылка на приватное зеркало нашего сайта всего за 1$. Внимание количество ограничено!!!

2 сезон

iTunes

1 сезон

1

2 сезон

2 сезон

iTunes

1 сезон

RePack

30

Ultimate

ВАЖНО

ИГРА 18+

pack

RePack

MK11
pack

Забери бонус

RePack

jed

!!Акция!!

Alien_Rage

RePack

fifa19

RePack

Assassins Creed: Odyssey

RePack

NEED FOR SPEED™ PAYBACK

4 сезон

9 сезон

Бесстыжие 9 сезон

Все сериалы

все сериалы на PB.wtf

RePack

FAR CRY 5
  

Чужие / The Dustwalker (Сандра Скиберрас) [2019 г., фантастика, триллер, драма, HDRip, Профессиональный многоголосый закадровый "iTunes"] piratbit.pw

Чужие через торрент piratbit.pw

Раздают: 2 [ 0 KB/s ]
Размер: 706 MB | Добавлен: 5 мес. 11 д. назад | Торрент скачан:80 раз
Скачать  

13-06-2020 18:43 Чужие Скачать торрент  

Чужие / The Dustwalker
Год выпуска: 2019
Страна: Австралия / Three Feet Of Film,, Head Gear Films, Kreo Films FZ
Жанр: фантастика, триллер, драма
Продолжительность: 01:34:51
Перевод: Профессиональный многоголосый закадровый (iTunes) «Они уже среди нас»Режиссер: Сандра Скиберрас

rating

В ролях: Джолин Андерсон, Стэф Доусон, Талина Навиеде, Гарри Гринвуд, Райан Аллен, Хлоя Браун, Нина Дисли, Сэм Дадли, Руби Дункан, Кассандра Маграт

Описание: Упавший космический корабль приносит паразита, превращающего людей в страшных монстров. Чтобы выжить, сержанту Джо Шарп придётся вступить в альянс с пришельцами...

Качество: HDRip
Формат: AVI
Видео кодек: DivX
Аудио кодек: MP3
Видео: 640x272 (2.35:1), 23.976 fps, DivX Codec 4.x ~902 kbps avg, 0.22 bit/pixel
Аудио: 48 kHz, MPEG Layer 3, 2 ch, ~128.00 kbps avg
скриншот   скриншот   скриншот   скриншот   скриншот   скриншот   скриншот   скриншот  

Общее
Полное имя : F:\ФИЛЬМЫ\Чужие.2019.HDRip.avi
Формат : AVI
Формат/Информация : Audio Video Interleave
Размер файла : 706 Мбайт
Продолжительность : 1 ч. 34 м.
Общий поток : 1 040 Кбит/сек
Программа кодирования : VirtualDubMod 1.5.10.3 | www.virtualdub-fr.org || (build 2550/release)
Библиотека кодирования : VirtualDubMod build 2550/release

Видео
Идентификатор : 0
Формат : MPEG-4 Visual
Профиль формата : Advanced Simple@L5
Настройки формата : BVOP3 / GMC3 / QPel
Параметр BVOP формата : 3
Параметр QPel формата : Да
Параметр GMC формата : 3 точки перехода
Параметр матрицы формата : Default (MPEG)
Идентификатор кодека : DIVX
Идентификатор кодека/Информация : Project Mayo
Идентификатор кодека/Подсказка : DivX 4
Продолжительность : 1 ч. 34 м.
Битрейт : 903 Кбит/сек
Ширина : 640 пикселей
Высота : 272 пикселя
Соотношение сторон : 2,35:1
Частота кадров : 23,976 (24000/1001) кадра/сек
Цветовое пространство : YUV
Субдискретизация насыщенности : 4:2:0
Битовая глубина : 8 бит
Тип развёртки : Прогрессивная
Метод сжатия : С потерями
Бит/(Пиксели*Кадры) : 0.216
Размер потока : 613 Мбайт (87%)
Библиотека кодирования : XviD 1.2.1 (UTC 2008-12-04)

Аудио
Идентификатор : 1
Формат : MPEG Audio
Версия формата : Version 1
Профиль формата : Layer 3
Настройки формата : Joint stereo / MS Stereo
Идентификатор кодека : 55
Идентификатор кодека/Подсказка : MP3
Продолжительность : 1 ч. 34 м.
Вид битрейта : Постоянный
Битрейт : 128 Кбит/сек
Каналы : 2 канала
Частота : 48,0 КГц
Частота кадров : 41,667 кадра/сек (1152 SPF)
Метод сжатия : С потерями
Размер потока : 86,8 Мбайт (12%)
Выравнивание : Соединение по промежуткам
Продолжительность промежутка : 42 мс. (1,00 видеокадр)
Время предзагрузки промежутка : 504 мс.
Библиотека кодирования : LAME3.99r
Настройки программы : -m j -V 4 -q 2 -lowpass 17 -b 128

piratbit.pw



Скачать Чужие через торрент http://pic1.kartinco.top/images/12/u8jtm.jpg Скачать фильм Чужие через торрент бесплантно в хорошем качестве Описание: Упавший космический корабль приносит паразита, превращающего людей в страшных монстров. Чтобы выжить, сержанту Джо Шарп придётся ... 10 10 2
Торрент: Зарегистрирован [2020-06-13 18:43] · скачан: 80 раз
Статус: √ проверено
Размер: 706 MB
Как cкачать? Как скачать Чужие через торрент | qTorrent

% Раздел Тема Автор DL S | L
Фильмы [HD 720p, 1080p] (Хороший звук DUB, MVO) [ 10.58 GB ] Чужие / Ужас из песка / The Dustwalker [2019 BDRip 1080p] MVO bober100 Скачать
2 | 0
Фильмы (Blu-ray, BD-Remux, HDDVD) [ 22.06 GB ] Чужие / Ужас из песка / The Dustwalker [2019 BD Remux 1080p] MVO bober100 Скачать
1 | 0
Фильмы 2019-2020 [DVDrip, WEB-DLRip, HDrip] (DUB, MVO) [ 1.46 GB ] Чужие / Ужас из песка / The Dustwalker [2019 BDRip] MVO bober100 Скачать
1 | 0

28-11-2019 20:33  

Отключить всю рекламу на сайте

13-06-2020 22:36 Чужие Скачать торрент  

ха, вирус превращающий обычных людей в американцев))piratbit.pw



14-06-2020 16:37 Чужие Скачать торрент  

tamburetko писал(а):

ха, вирус превращающий обычных людей в американцев))

piratbit.pw



23-06-2020 16:04 Чужие Скачать торрент  

дрюха писал(а):

tamburetko писал(а):

ха, вирус превращающий обычных людей в американцев))


яростно плюсую piratbit.pw



    Дорогой пользователь! Огромная просьба, поблагодарите релизера, оцените раздачу и оставьте свои комментарий, если Вы скачали Чужие через торрент бесплатно! Внесите свою лепту в развитие PiratBit!
    Комментировать посты могут только пользователи прошедшие не сложную регистрацию
    Показать сообщения:    

    Чужие через торрент
    Скачать бесплатно Чужие
    Чужие скачать торрент
    Чужие смотреть онлайн
    Cкачать фильм Чужие бесплатно
    Чужие скачать торрент в хорошем качестве
    Чужие смотреть онлайн бесплатно в хорошем качестве


    Вы не можете начинать темы
    Вы не можете отвечать на сообщения
    Вы не можете редактировать свои сообщения
    Вы не можете удалять свои сообщения
    Вы не можете голосовать в опросах
    Вы не можете прикреплять файлы к сообщениям
    Вы можете скачивать файлы