2 сезон

iTunes

WEBRip

1

2 сезон

iTunes

1 сезон

1 сезон

RePack

30

Новинка

ВАЖНО

ИГРА 18+

pack

RePack

MK11
pack

Легкие деньги

RePack

jed

RePack

fifa19

RePack

RDR2

RePack

NEED FOR SPEED™ PAYBACK

4 сезон

9 сезон

Бесстыжие 9 сезон

Все сериалы

все сериалы на PB.wtf

RePack

FAR CRY 5

Anonymous, доброе утро, мы не успеваем собрать деньги на оплату серверов за февраль, помогите нам пожалуйста в это трудное время. В качестве благодарности мы отключим Вам всю рекламу на сайте (укажите свой ник в строку Ваше имя)!

×
  
Magnet ссылка

Яга. Кошмар тёмного леса (Святослав Подгаевский) [2020, Ужасы, BDRip-AVC] [GER Transfer / Лицензия] piratbit.pw

Яга. Кошмар тёмного леса через торрент piratbit.pw

Раздают: 1 [ 0 KB/s ]
Размер: 2.18 GB | Добавлен: 8 мес. назад | Торрент скачан:134 раза
Скачать  

13-06-2020 05:35 Яга. Кошмар тёмного леса Скачать торрент  

Яга. Кошмар тёмного леса
Год выпуска: 2020
Страна: Россия
Студия: Нон-стоп Продакшн, QS Films
Жанр: Ужасы
Продолжительность: 01:36:45
Перевод: Не требуется | Лицензия Blu-Ray GER
Субтитры: Русские (Full (Enigma))

Режиссер: Святослав Подгаевский

rating

В ролях: Олег Чугунов, Глаша Голубева, Артём Жигулин, Игорь Хрипунов, Светлана Устинова, Алексей Розин, Марьяна Спивак, Марта Тимофеева, Даниил Филиппов, Евгения Евстигнеева

Описание: В центре сюжета - молодая семья, которая переехала в новую квартиру на окраине города. Нанятая ими для новорожденной дочери няня быстро вошла в доверие. Однако старший мальчик, Егор, рассказывает о пугающем поведении женщины, но родители ему не верят. Камеры наблюдения, установленные отцом для успокоения, лишь подтверждают - всё в порядке. И вот однажды Егор, вернувшись домой, не находит никаких следов ни няни, ни маленькой сестры, а родители пребывают в странном трансе и даже не помнят, что у них была дочь. Тогда Егор вместе с друзьями отправляется на поиски, в ходе которых выяснится, что няня - древний славянский демон.

Качество: BDRip-AVC | GER Transfer
Формат: MKV

Видео: 1024x428 (2, 40:1), 24 fps, MPEG-4 AVC, 2777 Kbps avg, 0.264 bit/pixel
Аудио: AC3, 48 kHz, 6 ch, ~448.00 kbps avg | русский | Blu-ray GER
скриншот  скриншот  скриншот  скриншот  скриншот  

Общее
Уникальный идентификатор : 320886794480588774335072068788119634192 (0xF1688C72ADC6EC1D622378ACC2DF8110)
Полное имя : Baba.Yaga.2020.BDRip.2.18Gb.x264.mkv
Формат : Matroska
Версия формата : Version 4
Размер файла : 2, 18 Гбайт
Продолжительность : 1 ч. 36 м.
Общий поток : 3 224 Кбит/сек
Дата кодирования : UTC 2020-06-13 04:54:34
Программа кодирования : mkvmerge v47.0.0 ('Black Flag') 64-bit
Библиотека кодирования : libebml v1.3.10 + libmatroska v1.5.2
Обложка : Yes
Attachments : cover.jpg

Видео
Идентификатор : 1
Формат : AVC
Формат/Информация : Advanced Video Codec
Профиль формата : High@L4.1
Настройки формата : CABAC / 12 Ref Frames
Параметр CABAC формата : Да
Параметр RefFrames формата : 12 кадров
Идентификатор кодека : V_MPEG4/ISO/AVC
Продолжительность : 1 ч. 36 м.
Битрейт : 2 777 Кбит/сек
Ширина : 1 024 пикселя
Высота : 428 пикселей
Соотношение сторон : 2, 40:1
Режим частоты кадров : Постоянный
Частота кадров : 24, 000 кадра/сек
Цветовое пространство : YUV
Субдискретизация насыщенности : 4:2:0
Битовая глубина : 8 бит
Тип развёртки : Прогрессивная
Бит/(Пиксели*Кадры) : 0.264
Размер потока : 1, 88 Гбайт (86%)
Заголовок : #stillet
Библиотека кодирования : x264 core 152 r2851bm ba24899
Настройки программы : cabac=1 / ref=12 / deblock=1:-2:-2 / analyse=0x3:0x113 / me=umh / subme=11 / psy=1 / psy_rd=1.00:0.15 / mixed_ref=1 / me_range=32 / chroma_me=1 / trellis=2 / 8x8dct=1 / cqm=0 / deadzone=21, 11 / fast_pskip=0 / chroma_qp_offset=-3 / threads=10 / lookahead_threads=3 / sliced_threads=0 / nr=0 / decimate=0 / interlaced=0 / bluray_compat=0 / constrained_intra=0 / bframes=10 / b_pyramid=2 / b_adapt=2 / b_bias=0 / direct=3 / weightb=1 / open_gop=0 / weightp=2 / keyint=240 / keyint_min=24 / scenecut=40 / intra_refresh=0 / rc=2pass / mbtree=0 / bitrate=2777 / ratetol=1.0 / qcomp=0.60 / qpmin=0 / qpmax=69 / qpstep=4 / cplxblur=20.0 / qblur=0.5 / ip_ratio=1.40 / pb_ratio=1.30 / aq=1:1.00
Язык : German
Default : Да
Forced : Нет

Аудио
Идентификатор : 2
Формат : AC-3
Формат/Информация : Audio Coding 3
Коммерческое название : Dolby Digital
Идентификатор кодека : A_AC3
Продолжительность : 1 ч. 36 м.
Вид битрейта : Постоянный
Битрейт : 448 Кбит/сек
Каналы : 6 каналов
Channel layout : L R C LFE Ls Rs
Частота : 48, 0 КГц
Частота кадров : 31, 250 кадров/сек (1536 SPF)
Метод сжатия : С потерями
Размер потока : 310 Мбайт (14%)
Заголовок : Blu-ray GER
Язык : Russian
Default : Да
Forced : Да

Текст
Идентификатор : 3
Формат : UTF-8
Идентификатор кодека : S_TEXT/UTF8
Идентификатор кодека/Информация : UTF-8 Plain Text
Продолжительность : 1 ч. 32 м.
Битрейт : 40 бит/сек
Count of elements : 588
Размер потока : 27, 4 Кбайт (0%)
Заголовок : Full (Enigma)
Язык : Russian
Default : Нет
Forced : Нет

Меню
00:00:00.000 : en:Chapter 01
00:06:43.500 : en:Chapter 02
00:14:42.750 : en:Chapter 03
00:21:46.750 : en:Chapter 04
00:28:55.666 : en:Chapter 05
00:37:46.375 : en:Chapter 06
00:44:01.750 : en:Chapter 07
00:48:57.000 : en:Chapter 08
00:54:26.708 : en:Chapter 09
01:01:38.875 : en:Chapter 10
01:08:03.666 : en:Chapter 11
01:11:43.416 : en:Chapter 12
01:16:19.375 : en:Chapter 13
01:23:23.250 : en:Chapter 14
01:27:32.625 : en:Chapter 15
01:32:50.833 : en:Chapter 16

piratbit.pw



Скачать Яга. Кошмар тёмного леса через торрент https://i112.fastpic.ru/big/2020/0613/65/ed26b94c51367c8dc687a1e5353f7065.jpg Скачать фильм Яга. Кошмар тёмного леса через торрент бесплантно в хорошем качестве Описание: В центре сюжета - молодая семья, которая переехала в новую квартиру на окраине города. Нанятая ими для новорожденной дочери няня ... 10 10 4
Торрент: Зарегистрирован [2020-06-13 05:35] · скачан: 134 раз
Статус: √ проверено
Размер: 2.18 GB
Как cкачать? Как скачать Яга. Кошмар тёмного леса через торрент | UTorrent

% Раздел Тема Автор DL S | L
Наши новые фильмы 2020 - 2021 [ 1.46 GB ] Яга. Кошмар тёмного леса [2020 BDRip] [Русский] [] Twi7ter Скачать
51 | 1
Наши фильмы (HD, WEB-DL 720p, 1080p) [ 4.63 GB ] Яга. Кошмар тёмного леса [2020 BDRip 720p] [] - ExKinoRay Enigma2010 Скачать
2 | 0
Наши фильмы (HD, WEB-DL 720p, 1080p) [ 10.54 GB ] Яга. Кошмар тёмного леса [2020 BDRip 1080p] [] - ExKinoRay Enigma2010 Скачать
1 | 0
Наши фильмы (Blu-ray, BD-Remux, HDDVD) [ 25.98 GB ] Яга. Кошмар тёмного леса [2020 BD Remux 1080p] [GER Transfer / ] bober100 Скачать
1 | 0
Наши фильмы (Blu-ray, BD-Remux, HDDVD) [ 31.5 GB ] Яга. Кошмар тёмного леса [2020 Blu-ray 1080p] [GER Transfer / ] bober100 Скачать
1 | 0
Наши новые фильмы 2020 - 2021 [ 1.46 GB ] Яга. Кошмар тёмного леса [2020 BDRip] [GER Transfer / ] bober100 Скачать
117 | 1
Наши фильмы (HD, WEB-DL 720p, 1080p) [ 2.16 GB ] Яга. Кошмар тёмного леса [2020 WEB-DL 720p] bober100 Скачать
3 | 0

28-11-2019 20:33  

Отключить всю рекламу на сайте


    Дорогой пользователь! Огромная просьба, поблагодарите релизера, оцените раздачу и оставьте свои комментарий, если Вы скачали Яга. Кошмар тёмного леса через торрент бесплатно! Внесите свою лепту в развитие PiratBit!
    Комментировать посты могут только пользователи прошедшие не сложную регистрацию
    Показать сообщения:    

    Яга. Кошмар тёмного леса через торрент
    Скачать бесплатно Яга. Кошмар тёмного леса
    Яга. Кошмар тёмного леса скачать торрент
    Яга. Кошмар тёмного леса смотреть онлайн
    Cкачать фильм Яга. Кошмар тёмного леса бесплатно
    Яга. Кошмар тёмного леса скачать торрент в хорошем качестве
    Яга. Кошмар тёмного леса смотреть онлайн бесплатно в хорошем качестве


    Вы не можете начинать темы
    Вы не можете отвечать на сообщения
    Вы не можете редактировать свои сообщения
    Вы не можете удалять свои сообщения
    Вы не можете голосовать в опросах
    Вы не можете прикреплять файлы к сообщениям
    Вы можете скачивать файлы