Ссылка на приватное зеркало нашего сайта всего за 1$. Внимание количество ограничено!!!

2 сезон

iTunes

1 сезон

1

2 сезон

2 сезон

iTunes

1 сезон

RePack

30

Новинка

ВАЖНО

ИГРА 18+

pack

RePack

MK11
pack

Забери бонус

RePack

jed

!!Акция!!

Alien_Rage

RePack

fifa19

RePack

Assassins Creed: Odyssey

RePack

NEED FOR SPEED™ PAYBACK

4 сезон

9 сезон

Бесстыжие 9 сезон

Все сериалы

все сериалы на PB.wtf

RePack

FAR CRY 5
  

Тайна печати дракона / Тайна Железной маски: путешествие в Китай (Олег Степченко) [2019, Приключения, HDRip-AVC] DUB [Лицензия] - ExKinoRay piratbit.pw

Тайна печати дракона через торрент piratbit.pw

Раздают: 25 [ 186 KB/s ]
Размер: 1.45 GB | Добавлен: 5 мес. 11 д. назад | Торрент скачан:248 раз
Скачать  

12-06-2020 01:44 Тайна печати дракона Скачать торрент  

Название: Тайна печати дракона
Год выхода: 2019
Жанр: Приключения
Страна: Россия, Китай
Перевод: Дублированный | Лицензия BD RUS
Продолжительность: 02:00:24
Режиссер: Олег Степченко
В ролях: Джейсон Флеминг, Арнольд Шварценеггер, Чарльз Дэнс, Джеки Чан, Яо Синтун, Кристофер Фэйрбэнк, Рутгер Хауэр, Мартин Клебба, Юрий Колокольников, Павел Воля

Описание: Английский путешественник Джонатан Грин получает от Петра I заказ на изготовление карт Дальнего Востока России. Ему вновь предстоит долгий путь, полный невероятных приключений, который приведет его в Китай. Картограф столкнется с массой головокружительных открытий, неожиданных встреч с диковинными существами, китайскими принцессами, мастерами смертоносных боевых искусств и самим Лун-Ван, Царем всех драконов. Что может быть опаснее, чем посмотреть в глаза Вию? Разве что встретиться с ним вновь. Что на этот раз окажется сильнее — непоколебимый скептицизм ученого или древняя черная магия, уже давно захватившая Влacть в Восточных землях?

rating

Формат: MKV
Качество: HDRip-AVC
Видео: MPEG-4 AVC, 720x404 (16:9), 24.000 fps, 1276 Kbps, 0.183 bit/pixel
Аудио : Russian: 48 kHz, AC3, 5.1, 448 Kbps
Субтитры: Русские (forced)
General
Unique ID : 170738756082154115863281451593317488951 (0x8073169ADE52389BA027E7EE17241937)
Complete name : F:\Tajna.Pechati.Drakona.2019.HDRip.AVC.ExKinoRay.mkv
Format : Matroska
Format version : Version 2
File size : 1.45 GiB
Duration : 2 h 0 min
Overall bit rate : 1 722 kb/s
Movie name : Тайна печати дракона 2019 from ExKinoRay
Encoded date : UTC 2020-06-12 00:57:31
Writing application : mkvmerge v5.6.0 ('Kenya Kane') built on May 27 2012 16:44:04
Writing library : libebml v1.2.3 + libmatroska v1.3.0

Video
ID : 1
Format : AVC
Format/Info : Advanced Video Codec
Format profile : High@L4.1
Format settings, CABAC : Yes
Format settings, ReFrames : 12 frames
Codec ID : V_MPEG4/ISO/AVC
Duration : 2 h 0 min
Bit rate : 1 276 kb/s
Width : 720 pixels
Height : 404 pixels
Display aspect ratio : 16:9
Frame rate mode : Constant
Frame rate : 24.000 FPS
Color space : YUV
Chroma subsampling : 4:2:0
Bit depth : 8 bits
Scan type : Progressive
Bits/(Pixel*Frame) : 0.183
Stream size : 1.04 GiB (72%)
Title : Enigma
Writing library : x264 core 152 r2851 ba24899
Encoding settings : cabac=1 / ref=12 / deblock=1:-2:-2 / analyse=0x3:0x113 / me=umh / subme=10 / psy=1 / psy_rd=1.00:0.03 / mixed_ref=1 / me_range=32 / chroma_me=1 / trellis=2 / 8x8dct=1 / cqm=0 / deadzone=21,11 / fast_pskip=0 / chroma_qp_offset=-3 / threads=12 / lookahead_threads=2 / sliced_threads=0 / nr=0 / decimate=0 / interlaced=0 / bluray_compat=0 / constrained_intra=0 / bframes=9 / b_pyramid=2 / b_adapt=2 / b_bias=0 / direct=3 / weightb=1 / open_gop=0 / weightp=2 / keyint=240 / keyint_min=24 / scenecut=40 / intra_refresh=0 / rc=2pass / mbtree=0 / bitrate=1276 / ratetol=1.0 / qcomp=0.60 / qpmin=0 / qpmax=51 / qpstep=4 / cplxblur=20.0 / qblur=0.5 / ip_ratio=1.40 / pb_ratio=1.30 / aq=2:0.80
Default : Yes
Forced : No

Audio
ID : 2
Format : AC-3
Format/Info : Audio Coding 3
Mode extension : CM (complete main)
Format settings, Endianness : Big
Codec ID : A_AC3
Duration : 2 h 0 min
Bit rate mode : Constant
Bit rate : 448 kb/s
Channel(s) : 6 channels
Channel positions : Front: L C R, Side: L R, LFE
Sampling rate : 48.0 kHz
Frame rate : 31.250 FPS (1536 spf)
Compression mode : Lossy
Stream size : 386 MiB (26%)
Title : Dub (Lic)
Language : Russian
Default : Yes
Forced : No

Text
ID : 3
Format : UTF-8
Codec ID : S_TEXT/UTF8
Codec ID/Info : UTF-8 Plain Text
Title : Forced
Language : Russian
Default : Yes
Forced : No

Menu
00:00:00.000 : en:Chapter 1
00:04:29.083 : en:Chapter 2
00:15:36.958 : en:Chapter 3
00:27:35.000 : en:Chapter 4
00:42:31.916 : en:Chapter 5
00:54:39.000 : en:Chapter 6
01:06:23.333 : en:Chapter 7
01:19:20.041 : en:Chapter 8
01:31:20.833 : en:Chapter 9
01:42:30.291 : en:Chapter 10
01:49:41.916 : en:Chapter 11


Релиз от:

Автор релиза: piratbit.pw



Скачать Тайна печати дракона через торрент http://lostpix.com/thumbs/2019-11/03/g7h534chturugeu0z2nlwljlx.png Скачать фильм Тайна печати дракона через торрент бесплантно в хорошем качестве Описание: Английский путешественник Джонатан Грин получает от Петра I заказ на изготовление карт Дальнего Востока России. Ему вновь ... 10 10 8
Info! Золотая раздача, скачанное не засчитывается.
Торрент: Зарегистрирован [2020-06-12 01:44] · скачан: 248 раз
Статус: √ проверено
Размер: 1.45 GB
Как cкачать? Как скачать Тайна печати дракона через торрент | qTorrent

28-11-2019 20:33  

Отключить всю рекламу на сайте

15-06-2020 18:01 Тайна печати дракона Скачать торрент  

Сказка для детей 14-16 лет.piratbit.pw



    Дорогой пользователь! Огромная просьба, поблагодарите релизера, оцените раздачу и оставьте свои комментарий, если Вы скачали Тайна печати дракона через торрент бесплатно! Внесите свою лепту в развитие PiratBit!
    Комментировать посты могут только пользователи прошедшие не сложную регистрацию
    Показать сообщения:    

    Тайна печати дракона через торрент
    Скачать бесплатно Тайна печати дракона
    Тайна печати дракона скачать торрент
    Тайна печати дракона смотреть онлайн
    Cкачать фильм Тайна печати дракона бесплатно
    Тайна печати дракона скачать торрент в хорошем качестве
    Тайна печати дракона смотреть онлайн бесплатно в хорошем качестве


    Вы не можете начинать темы
    Вы не можете отвечать на сообщения
    Вы не можете редактировать свои сообщения
    Вы не можете удалять свои сообщения
    Вы не можете голосовать в опросах
    Вы не можете прикреплять файлы к сообщениям
    Вы можете скачивать файлы