Marvel's Avengers Deluxe Edition (супер цена) 159р. Внимание количество ограничено!!!

2 сезон

iTunes

iTunes

1

iTunes

iTunes

iTunes

WEBRip

iTunes

30
pack

Новость дня

ВАЖНО

!!Акция!!

Alien_RageХит недели

RePack

Horizon Zero Dawn

ИГРА 18+

pack

RePack

jed

!!Акция!!

Alien_Rage

RePack

fifa19

RePack

Assassins Creed: Odyssey

RePack

NEED FOR SPEED™ PAYBACK

4 сезон

9 сезон

Бесстыжие 9 сезон

Все сериалы

все сериалы на PB.wtf

RePack

FAR CRY 5
  

Кровавый след / Trackers / Сезон: 1 / Серии: 1-6 из 6 (Йюри Кяхёнен) [2019, Драма, криминал, WEB-DLRip] MVO [Novamedia / Amedia] piratbit.pw

Кровавый след через торрент piratbit.pw

Раздают: 3 [ 95 KB/s ]
Размер: 5.36 GB | Добавлен: 2 д. 21 ч. назад | Торрент скачан:17 раз
Скачать  

08-06-2020 16:58 Кровавый след Скачать торрент  

Кровавый след | Trackers
Год выпуска: 2019
Страна: ЮАР
Выпущено: Three River Fiction, Scene23
Жанр: Драма, криминал
Продолжительность: ~ 01:00:00
Перевод: Профессиональный (многоголосый) | Novamedia по заказу Amedia
Субтитры: Русские (форсированные)

Режиссер: Йюри Кяхёнен

rating

В ролях: Тамер Барджаг, Джеймс Александр, Сисанда Хенна, Авиталь Львова, Тапело Мокоэна, Деон Лотз, Сэнди Шульц, Трикс Вивье, Масали Бадуза, Дэвид Дюка

Описание: История крутится вокруг контрабанды алмазов и экзотических животных. Участие в хитрой схеме примут журналистки, телохранители с криминальным прошлым, местные чиновники и международные шпионы.

Качество: WEB-DLRip
Формат: AVI

Видео: XVID, 720x400, 23.976 fps, ~2000 kbps avg, 0.29 bit/pixel
Аудио Rus: AC3, 48.0 KHz, 6 channels, 384 kbps
скриншот  скриншот  скриншот  скриншот  

General
Complete name : F:\Кровавый след (Сезон 1) Amedia\Trackers.S01E01.WEB-DLRip.RGzsRutracker.Celta88.avi
Format : AVI
Format/Info : Audio Video Interleave
File size : 933 MiB
Duration : 54 min 30 s
Overall bit rate : 2 394 kb/s
Writing application : VirtualDubMod 1.5.10.2 (build 2540/release)
Writing library : VirtualDubMod build 2540/release

Video
ID : 0
Format : MPEG-4 Visual
Format profile : Advanced Simple@L5
Format settings, BVOP : 1
Format settings, QPel : No
Format settings, GMC : No warppoints
Format settings, Matrix : Custom
Codec ID : XVID
Codec ID/Hint : XviD
Duration : 54 min 30 s
Bit rate : 2 000 kb/s
Width : 720 pixels
Height : 400 pixels
Display aspect ratio : 16:9
Frame rate : 23.976 (24000/1001) FPS
Color space : YUV
Chroma subsampling : 4:2:0
Bit depth : 8 bits
Scan type : Progressive
Compression mode : Lossy
Bits/(Pixel*Frame) : 0.290
Stream size : 780 MiB (84%)
Writing library : XviD 73

Audio
ID : 1
Format : AC-3
Format/Info : Audio Coding 3
Mode extension : CM (complete main)
Format settings, Endianness : Big
Codec ID : 2000
Duration : 54 min 30 s
Bit rate mode : Constant
Bit rate : 384 kb/s
Channel(s) : 6 channels
Channel positions : Front: L C R, Side: L R, LFE
Sampling rate : 48.0 kHz
Frame rate : 31.250 FPS (1536 spf)
Bit depth : 16 bits
Compression mode : Lossy
Delay relative to video : 24 ms
Stream size : 150 MiB (16%)
Alignment : Split accross interleaves
Interleave, duration : 42 ms (1.00 video frame)
Interleave, preload duratio : 500 ms

Раздача ведётся путём добавления новых серий, при каждом добавлении создаётся новый торрент. Чтобы начать докачку новой серии, пользователям необходимо сделать следующее:
- Остановить скачивание.
- Удалить старый торрент у себя из клиента (старые серии удалять не надо).
- Скачать новый торрент и запустить его у себя в клиенте вместо старого, при этом указать клиенту путь в старую папку куда и должно происходить скачивание новых серий.
Ваш клиент при этом должен произвести хеширование (проверку) старой папки (если не производит сам - помогите ему сделать это), и будет докачивать только те серии которых у вас ещё нет. Старые серии при этом не удаляются, а продолжают раздаваться!
piratbit.pw



Скачать Кровавый след через торрент https://i112.fastpic.ru/big/2020/0613/57/0eebf50ff14361a8447d7b19f2f3ee57.jpg Скачать фильм Кровавый след через торрент бесплантно в хорошем качестве Описание: История крутится вокруг контрабанды алмазов и экзотических животных. Участие в хитрой схеме примут журналистки, телохранители с ... 10 10 3
Торрент: Зарегистрирован [2020-09-16 02:36] · скачан: 17 раз
Статус: √ проверено
Размер: 5.36 GB
Как cкачать? Как скачать Кровавый след через торрент | qTorrent

% Раздел Тема Автор DL S | L
Зарубежные сериалы [ 26.29 GB ] Кровавый след / Trackers / Сезон: 1 / Серии: 1-6 из 6 [2019 WEB-DL 1080p] MVO [NewStudio] bober100 Скачать
1 | 0
Зарубежные сериалы [ 16.28 GB ] Кровавый след / Trackers / Сезон: 1 / Серии: 1-6 из 6 [2019 WEB-DL 720p] MVO [NewStudio] bober100 Скачать
1 | 0
Зарубежные сериалы [ 25.67 GB ] Кровавый след / Trackers / Сезон: 1 / Серии: 1-6 из 6 [2019 WEB-DL 1080p] MVO [Novamedia / Amedia] bober100 Скачать
1 | 0

28-11-2019 20:33  

Отключить всю рекламу на сайте

    Дорогой пользователь! Огромная просьба, поблагодарите релизера, оцените раздачу и оставьте свои комментарий, если Вы скачали Кровавый след через торрент бесплатно! Внесите свою лепту в развитие PiratBit!
    Комментировать посты могут только пользователи прошедшие не сложную регистрацию
    Показать сообщения:    

    Кровавый след через торрент
    Скачать бесплатно Кровавый след
    Кровавый след скачать торрент
    Кровавый след смотреть онлайн
    Cкачать фильм Кровавый след бесплатно
    Кровавый след скачать торрент в хорошем качестве
    Кровавый след смотреть онлайн бесплатно в хорошем качестве


    Вы не можете начинать темы
    Вы не можете отвечать на сообщения
    Вы не можете редактировать свои сообщения
    Вы не можете удалять свои сообщения
    Вы не можете голосовать в опросах
    Вы не можете прикреплять файлы к сообщениям
    Вы можете скачивать файлы