Ссылка на приватное зеркало нашего сайта всего за 1$. Внимание количество ограничено!!!

2 сезон

iTunes

1 сезон

1

2 сезон

2 сезон

iTunes

1 сезон

RePack

30

Новинка

ВАЖНО

ИГРА 18+

pack

RePack

MK11
pack

Забери бонус

RePack

jed

!!Акция!!

Alien_Rage

RePack

fifa19

RePack

Assassins Creed: Odyssey

RePack

NEED FOR SPEED™ PAYBACK

4 сезон

9 сезон

Бесстыжие 9 сезон

Все сериалы

все сериалы на PB.wtf

RePack

FAR CRY 5
  

Бог грома / Mortal (Андре Овредал) [2020, фэнтези, боевик, приключения, WEB-DLRip-AVC] [Dub] [iTunes] piratbit.pw

Бог грома через торрент piratbit.pw

Раздают: 1 [ 0 KB/s ]
Размер: 1.4 GB | Добавлен: 5 мес. 20 д. назад | Торрент скачан:255 раз
Скачать  

08-06-2020 13:25 Бог грома Скачать торрент  


Бог грома / Mortal



Год выпуска: 2020
Страна: Норвегия, США, Великобритания
Жанр: фэнтези, боевик, приключения
Продолжительность: 01:43:58
Перевод: Профессиональный (дублированный) iTunes
Субтитры: нет
Режиссер: Андре Овредал / André Øvredal
В ролях: Нат Вулф, Приянка Бозе, Ибен М. Акерлие, Артур Хакалахти, Оддрун Валестранд, Равдип Сингх Баджва, Аня Нова, Суннива Линд Ховерстад, Пер Фриш, Нико Русаков
Описание: Повелевать стихией, обращать в пепел прикосновением и заставлять всё живое трепетать от страха — удел языческих богов. Но что произойдет, когда планета столкнется с одним из них во плоти? Ведь этот древний Бог всего лишь человек.


Качество видео: WEB-DLRip-AVC / WEB-DL 1080p
Формат видео: MKV
Видео: MPEG-4 AVC, 1010x424 (2.40:1), 24.000 fps, ~1501 kbps avg, 0.146 bit/pixel
Аудио: 48 kHz, AC3 Dolby Digital, 3/2 (L,C,R,l,r) + LFE ch, ~384 kbps avg

Код:

Complete name               : D:\Раздача\Бог грома (2020) WEB-DLRip-AVC_ivanes.mkv
Format                      : Matroska
Format version              : Version 2
File size                   : 1.40 GiB
Duration                    : 1 h 43 min
Overall bit rate            : 1 924 kb/s
Movie name                  : Бог грома (2020) WEB-DLRip-AVC_ivanes
Encoded date                : UTC 2020-06-01 21:39:24
Writing application         : mkvmerge v4.4.0 ('Die Wiederkehr') сборка от Jan  3 2011 21:40:45
Writing library             : libebml v1.0.0 + libmatroska v1.0.0
Cover                       : Yes
Attachments                 : cover.jpg

Video
ID                          : 1
Format                      : AVC
Format/Info                 : Advanced Video Codec
Format profile              : High@L4.1
Format settings             : CABAC / 11 Ref Frames
Format settings, CABAC      : Yes
Format settings, Reference  : 11 frames
Codec ID                    : V_MPEG4/ISO/AVC
Duration                    : 1 h 43 min
Bit rate                    : 1 501 kb/s
Width                       : 1 010 pixels
Height                      : 424 pixels
Display aspect ratio        : 2.40:1
Frame rate mode             : Constant
Frame rate                  : 24.000 FPS
Color space                 : YUV
Chroma subsampling          : 4:2:0
Bit depth                   : 8 bits
Scan type                   : Progressive
Bits/(Pixel*Frame)          : 0.146
Stream size                 : 1.09 GiB (78%)
Title                       : Rip by ivanes
Writing library             : x264 core 160 r3000 33f9e14
Encoding settings           : cabac=1 / ref=11 / deblock=1:-3:-3 / analyse=0x3:0x113 / me=umh / subme=10 / psy=1 / psy_rd=1.00:0.00 / mixed_ref=1 / me_range=32 / chroma_me=1 / trellis=2 / 8x8dct=1 / cqm=0 / deadzone=21,11 / fast_pskip=0 / chroma_qp_offset=-2 / threads=12 / lookahead_threads=3 / sliced_threads=0 / nr=0 / decimate=1 / interlaced=0 / bluray_compat=0 / constrained_intra=0 / bframes=13 / b_pyramid=2 / b_adapt=2 / b_bias=0 / direct=1 / weightb=1 / open_gop=0 / weightp=2 / keyint=240 / keyint_min=24 / scenecut=40 / intra_refresh=0 / rc_lookahead=60 / rc=crf / mbtree=1 / crf=16.9 / qcomp=0.65 / qpmin=0 / qpmax=69 / qpstep=4 / vbv_maxrate=50000 / vbv_bufsize=62500 / crf_max=0.0 / nal_hrd=none / filler=0 / ip_ratio=1.40 / aq=1:1.00
Default                     : Yes
Forced                      : No
Statistics Tags Issue       : mkvmerge v29.0.0 ('Like It Or Not') 64-bit 2020-06-01 21:38:48 / mkvmerge v4.4.0 ('Die Wiederkehr') сборка от Jan  3 2011 21:40:45 2020-06-01 21:39:24
FromStats_BitRate           : 1537814
FromStats_Duration          : 01:43:58.125000000
FromStats_FrameCount        : 149715
FromStats_StreamSize        : 1199134807

Audio
ID                          : 2
Format                      : AC-3
Format/Info                 : Audio Coding 3
Commercial name             : Dolby Digital
Codec ID                    : A_AC3
Duration                    : 1 h 43 min
Bit rate mode               : Constant
Bit rate                    : 384 kb/s
Channel(s)                  : 6 channels
Channel layout              : L R C LFE Ls Rs
Sampling rate               : 48.0 kHz
Frame rate                  : 31.250 FPS (1536 SPF)
Compression mode            : Lossy
Stream size                 : 286 MiB (20%)
Title                       : iTunes
Language                    : Russian
Service kind                : Complete Main
Default                     : Yes
Forced                      : No

скриншот  скриншот  скриншот  
piratbit.pw



Скачать Бог грома через торрент https://i112.fastpic.ru/big/2020/0601/87/c3fc5fd74b4f974c7077d52538dfcd87.jpg Скачать фильм Бог грома через торрент бесплантно в хорошем качестве Описание: Повелевать стихией, обращать в пепел прикосновением и заставлять всё живое трепетать от страха — удел языческих богов. Но что ... 9.1 10 10
Торрент: Зарегистрирован [2020-06-08 13:25] · скачан: 255 раз
Статус: √ проверено
Размер: 1.4 GB
Как cкачать? Как скачать Бог грома через торрент | qTorrent

% Раздел Тема Автор DL S | L
Фильмы 2019-2020 [DVDrip, WEB-DLRip, HDrip] (DUB, MVO) [ 1.42 GB ] Бог грома / Mortal [2020 BDRip] - Twi7ter Скачать
27 | 3
Фильмы 2019-2020 [DVDrip, WEB-DLRip, HDrip] (DUB, MVO) [ 752 MB ] Бог грома / Mortal [2020 HDRip-AVC] от MediaBit Lithuania Скачать
1 | 0
Фильмы 2019-2020 [DVDrip, WEB-DLRip, HDrip] (DUB, MVO) [ 1.68 GB ] Бог грома / Mortal [2020 BDRip-AVC] от MediaBit Lithuania Скачать
4 | 0
Фильмы (WEB-DL 720p, 1080p) [ 3.54 GB ] Бог грома / Mortal [2020 WEB-DL 1080p] DUB [iTuens] bober100 Скачать
5 | 0
Фильмы [HD 720p, 1080p] (Хороший звук DUB, MVO) [ 2.96 GB ] Бог грома / Mortal [2020 BDRip 720p] DUB [iTuens] bober100 Скачать
4 | 0
Фильмы (Blu-ray, BD-Remux, HDDVD) [ 19.87 GB ] Бог грома / Mortal [2020 BD Remux 1080i] DUB [iTuens] bober100 Скачать
7 | 1
Фильмы [HD 720p, 1080p] (Хороший звук DUB, MVO) [ 7.14 GB ] Бог грома / Mortal [2020 BDRip 1080p] DUB [iTuens] bober100 Скачать
6 | 0

28-11-2019 20:33  

Отключить всю рекламу на сайте

09-06-2020 04:46 Бог грома Скачать торрент  

Не тратьте время. Очень муторно.piratbit.pw



    Дорогой пользователь! Огромная просьба, поблагодарите релизера, оцените раздачу и оставьте свои комментарий, если Вы скачали Бог грома через торрент бесплатно! Внесите свою лепту в развитие PiratBit!
    Комментировать посты могут только пользователи прошедшие не сложную регистрацию
    Показать сообщения:    

    Бог грома через торрент
    Скачать бесплатно Бог грома
    Бог грома скачать торрент
    Бог грома смотреть онлайн
    Cкачать фильм Бог грома бесплатно
    Бог грома скачать торрент в хорошем качестве
    Бог грома смотреть онлайн бесплатно в хорошем качестве


    Вы не можете начинать темы
    Вы не можете отвечать на сообщения
    Вы не можете редактировать свои сообщения
    Вы не можете удалять свои сообщения
    Вы не можете голосовать в опросах
    Вы не можете прикреплять файлы к сообщениям
    Вы можете скачивать файлы