Marvel's Avengers Deluxe Edition (супер цена) 159р. Внимание количество ограничено!!!

2 сезон

iTunes

iTunes

1

iTunes

iTunes

iTunes

WEBRip

iTunes

30
pack

Новость дня

ВАЖНО

!!Акция!!

Alien_RageХит недели

RePack

Horizon Zero Dawn

ИГРА 18+

pack

RePack

jed

!!Акция!!

Alien_Rage

RePack

fifa19

RePack

Assassins Creed: Odyssey

RePack

NEED FOR SPEED™ PAYBACK

4 сезон

9 сезон

Бесстыжие 9 сезон

Все сериалы

все сериалы на PB.wtf

RePack

FAR CRY 5
  

Рыжий, честный, влюбленный [1984 г., Сказка, детский, приключения, SATRip] piratbit.pw

Рыжий, честный, влюбленный через торрент piratbit.pw

Размер: 2.63 GB | Добавлен: 3 мес. 11 д. назад | Торрент скачан:7 раз
Скачать  

07-06-2020 06:49 Рыжий, честный, влюбленный Скачать торрент  

Рыжий честный влюбленный
Год выпуска: 1984
Страна: СССР
Жанр: Сказка, детский, приключения
Продолжительность: 02:24:31

В ролях: Денис Зайцев, Мария Яхонтова, Алексей Круглов, Ксения Кутепова, Полина Кутепова, Саша Навинский, Альберт Филозов, Екатерина Васильева, Ирина Мирошниченко, Татьяна Агафонова, Вадим Александров, Татьяна Пельтцер, Вера Титова, Николай Трофимов, Николай Ферапонтов

Описание: Лисенок Людвиг взбунтовался против хитрости и обмана, процветающих в его семье. Непонятый сородичами, он ушел из родного дома. Недалеко от человеческого жилища он встретил Тутту, которая поверила ему. Подружившись с ней, Людвиг вдруг узнал, что она… цыпленок ! А ведь всем известно, что лисам нельзя дружить с курами...

Качество: SATRip
Формат: AVI
Видео кодек: XviD
Аудио кодек: AC3
Видео: XviD, 688х512 , 25.0fps, 2400 Kbps
Аудио#1: AC3 , 2 ch , 48,0 kHz , 192 kbps
скриншот   скриншот   скриншот   скриншот  

Общее
Полное имя : Ryzhyi.Chestnyi.Vlublennyi.1984.O.SATRip.2800.CurHaJI.avi
Формат : AVI
Формат/Информация : Audio Video Interleave
Профиль формата : OpenDML
Размер файла : 2,63 Гбайт
Продолжительность : 2 ч. 24 м.
Общий поток : 2603 Кбит/сек
Название фильма : Ryzhyi.Chestnyi.Vlublennyi.1984.O.SATRip.2800.CurHaJI
Программа кодирования : VirtualDubMod 1.5.10.3 | www.virtualdub-fr.org || (build 2550/release)
Библиотека кодирования : VirtualDub build 35491/release

Видео
Идентификатор : 0
Формат : MPEG-4 Visual
Профиль формата : Advanced Simple@L5
Параметр BVOP формата : 1
Параметр QPel формата : Нет
Параметр GMC формата : Без точки перехода
Параметр матрицы формата : Выборочная
Идентификатор кодека : XVID
Идентификатор кодека/Подсказка : XviD
Продолжительность : 2 ч. 24 м.
Битрейт : 2400 Кбит/сек
Ширина : 688 пикселей
Высота : 512 пикселей
Соотношение сторон : 4:3
Частота кадров : 25,000 кадров/сек
Цветовое пространство : YUV
Субдискретизация насыщенности : 4:2:0
Битовая глубина : 8 бит
Тип развёртки : Прогрессивная
Метод сжатия : С потерями
Бит/(Пиксели*Кадры) : 0.273
Размер потока : 2,42 Гбайт (92%)
Библиотека кодирования : XviD 73

Аудио
Идентификатор : 1
Формат : AC-3
Формат/Информация : Audio Coding 3
Расширение режима : CM (complete main)
Параметр Endianness формата : Big
Идентификатор кодека : 2000
Продолжительность : 2 ч. 24 м.
Вид битрейта : Постоянный
Битрейт : 192 Кбит/сек
Каналы : 2 канала
Расположение каналов : Front: L R
Частота : 48,0 КГц
Частота кадров : 31,250 кадров/сек (1536 spf)
Битовая глубина : 16 бит
Метод сжатия : С потерями
Размер потока : 198 Мбайт (7%)
Выравнивание : Разделение по промежуткам
Продолжительность промежутка : 40 мс. (1,00 видеокадр)
Время предзагрузки промежутка : 500 мс.

piratbit.pw



Скачать Рыжий, честный, влюбленный через торрент http://pic1.kartinco.top/images/12/yzqfl.jpg Скачать фильм Рыжий, честный, влюбленный [1984 г., Сказка, детский, приключения, SATRip]через торрент бесплантно в хорошем качестве Описание: Лисенок Людвиг взбунтовался против хитрости и обмана, процветающих в его семье. Непонятый сородичами, он ушел из родного дома. ... 10 10 5
Info! Золотая раздача, скачанное не засчитывается.
Торрент: Зарегистрирован [2020-06-07 06:49] · скачан: 7 раз
Статус: √ проверено
Размер: 2.63 GB
Как cкачать? Как скачать Рыжий, честный, влюбленный через торрент | qTorrent

28-11-2019 20:33  

Отключить всю рекламу на сайте

    Дорогой пользователь! Огромная просьба, поблагодарите релизера, оцените раздачу и оставьте свои комментарий, если Вы скачали Рыжий, честный, влюбленный через торрент бесплатно! Внесите свою лепту в развитие PiratBit!
    Комментировать посты могут только пользователи прошедшие не сложную регистрацию
    Показать сообщения:    

    Рыжий, честный, влюбленный через торрент
    Скачать бесплатно Рыжий, честный, влюбленный
    Рыжий, честный, влюбленный скачать торрент
    Рыжий, честный, влюбленный смотреть онлайн
    Cкачать фильм Рыжий, честный, влюбленный бесплатно
    Рыжий, честный, влюбленный скачать торрент в хорошем качестве
    Рыжий, честный, влюбленный смотреть онлайн бесплатно в хорошем качестве


    Вы не можете начинать темы
    Вы не можете отвечать на сообщения
    Вы не можете редактировать свои сообщения
    Вы не можете удалять свои сообщения
    Вы не можете голосовать в опросах
    Вы не можете прикреплять файлы к сообщениям
    Вы можете скачивать файлы