Ссылка на приватное зеркало нашего сайта всего за 1$. Внимание количество ограничено!!!

2 сезон

iTunes

1 сезон

1

2 сезон

2 сезон

iTunes

1 сезон

RePack

30

Новинка

ВАЖНО

ИГРА 18+

pack

RePack

MK11
pack

Забери бонус

RePack

jed

!!Акция!!

Alien_Rage

RePack

fifa19

RePack

Assassins Creed: Odyssey

RePack

NEED FOR SPEED™ PAYBACK

4 сезон

9 сезон

Бесстыжие 9 сезон

Все сериалы

все сериалы на PB.wtf

RePack

FAR CRY 5
  

Квин и Слим / Queen and Slim (Мелина Матсукас) [2019, драма, мелодрама, криминал, BDRip-AVC] [Dub] (BD CEE) piratbit.pw

Квин и Слим через торрент piratbit.pw

Размер: 1.36 GB | Добавлен: 5 мес. 20 д. назад | Торрент скачан:55 раз
Скачать  

04-06-2020 18:56 Квин и Слим Скачать торрент  


Квин и Слим / Queen and Slim



Страна: Канада, США
Жанр: драма, мелодрама, криминал
Год выпуска: 2019
Продолжительность: 02:12:22
Перевод: Профессиональный (дублированный) BD CEE
Субтитры: русские (форсированные)
Режиссер: Мелина Матсукас / Melina Matsoukas
В ролях: Дэниэл Калуя, Джоди Тёрнер-Смит, Боким Вудбайн, Хлоя Севиньи, Фли, Стерджил Симпсон, Индия Мур, Бенито Мартинес, Джахи Диалло Уинстон, Грэйлен Брайант Бэнкс
Описание: Не самое удачное свидание из-за встречи с патрульным превращается в историю о погоне и любви, где два человека вынуждены бежать не куда, а откуда. И пока одни думают о выживании, для других эта парочка превращается в символ травмы и боли.


Качество видео: BDRip-AVC / Queen.and.Slim.2019.BDREMUX.1080p.seleZen
Формат видео: MKV
Видео: MPEG-4 AVC, 912x382 (2.40:1), 23.976 fps, ~1254 kbps avg, 0.150 bit/pixel
Аудио: 48 kHz, AC3 Dolby Digital, 2/0 (L,R) ch, ~192 kbps avg

Код:

Complete name               : D:\Раздача\Квин и Слим (2019) BDRip-AVC_ivanes.mkv
Format                      : Matroska
Format version              : Version 2
File size                   : 1.36 GiB
Duration                    : 2 h 12 min
Overall bit rate            : 1 476 kb/s
Movie name                  : Квин и Слим (2019) BDRip-AVC_ivanes
Encoded date                : UTC 2020-06-02 11:54:52
Writing application         : mkvmerge v4.4.0 ('Die Wiederkehr') сборка от Jan  3 2011 21:40:45
Writing library             : libebml v1.0.0 + libmatroska v1.0.0
Cover                       : Yes
Attachments                 : cover.jpg

Video
ID                          : 1
Format                      : AVC
Format/Info                 : Advanced Video Codec
Format profile              : High@L4.1
Format settings             : CABAC / 13 Ref Frames
Format settings, CABAC      : Yes
Format settings, Reference  : 13 frames
Codec ID                    : V_MPEG4/ISO/AVC
Duration                    : 2 h 12 min
Bit rate                    : 1 254 kb/s
Width                       : 912 pixels
Height                      : 382 pixels
Display aspect ratio        : 2.40:1
Frame rate mode             : Constant
Frame rate                  : 23.976 (24000/1001) FPS
Color space                 : YUV
Chroma subsampling          : 4:2:0
Bit depth                   : 8 bits
Scan type                   : Progressive
Bits/(Pixel*Frame)          : 0.150
Stream size                 : 1.16 GiB (85%)
Title                       : Rip by ivanes
Writing library             : x264 core 160 r3000 33f9e14
Encoding settings           : cabac=1 / ref=13 / deblock=1:-3:-2 / analyse=0x3:0x113 / me=umh / subme=10 / psy=1 / psy_rd=1.00:0.00 / mixed_ref=1 / me_range=32 / chroma_me=1 / trellis=2 / 8x8dct=1 / cqm=0 / deadzone=21,11 / fast_pskip=0 / chroma_qp_offset=-2 / threads=12 / lookahead_threads=2 / sliced_threads=0 / nr=0 / decimate=1 / interlaced=0 / bluray_compat=0 / constrained_intra=0 / bframes=13 / b_pyramid=2 / b_adapt=2 / b_bias=0 / direct=1 / weightb=1 / open_gop=0 / weightp=2 / keyint=240 / keyint_min=23 / scenecut=40 / intra_refresh=0 / rc_lookahead=60 / rc=crf / mbtree=1 / crf=16.4 / qcomp=0.65 / qpmin=0 / qpmax=69 / qpstep=4 / vbv_maxrate=50000 / vbv_bufsize=62500 / crf_max=0.0 / nal_hrd=none / filler=0 / ip_ratio=1.40 / aq=1:1.00
Default                     : Yes
Forced                      : No
Statistics Tags Issue       : mkvmerge v29.0.0 ('Like It Or Not') 64-bit 2020-06-02 11:54:22 / mkvmerge v4.4.0 ('Die Wiederkehr') сборка от Jan  3 2011 21:40:45 2020-06-02 11:54:52
FromStats_BitRate           : 1281802
FromStats_Duration          : 02:12:22.935000000
FromStats_FrameCount        : 190440
FromStats_StreamSize        : 1272659396

Audio
ID                          : 2
Format                      : AC-3
Format/Info                 : Audio Coding 3
Commercial name             : Dolby Digital
Codec ID                    : A_AC3
Duration                    : 2 h 12 min
Bit rate mode               : Constant
Bit rate                    : 192 kb/s
Channel(s)                  : 2 channels
Channel layout              : L R
Sampling rate               : 48.0 kHz
Frame rate                  : 31.250 FPS (1536 SPF)
Compression mode            : Lossy
Stream size                 : 182 MiB (13%)
Title                       : BD EUR
Language                    : Russian
Service kind                : Complete Main
Default                     : Yes
Forced                      : No

Text
ID                          : 3
Format                      : UTF-8
Codec ID                    : S_TEXT/UTF8
Codec ID/Info               : UTF-8 Plain Text
Title                       : Forced
Language                    : Russian
Default                     : Yes
Forced                      : No

скриншот  скриншот  скриншот  
piratbit.pw



Скачать Квин и Слим через торрент https://i112.fastpic.ru/big/2020/0602/71/a3a8bc08226a70cb8e185089ba61ab71.jpg Скачать фильм Квин и Слим через торрент бесплантно в хорошем качестве Описание: Не самое удачное свидание из-за встречи с патрульным превращается в историю о погоне и любви, где два человека вынуждены бежать ... 10 10 2
Торрент: Зарегистрирован [2020-06-04 18:56] · скачан: 55 раз
Статус: √ проверено
Размер: 1.36 GB
Как cкачать? Как скачать Квин и Слим через торрент | qTorrent

% Раздел Тема Автор DL S | L
Фильмы 2019-2020 [DVDrip, WEB-DLRip, HDrip] (DUB, MVO) [ 2.18 GB ] Квин и Слим / Queen and Slim [2019 BDRip] - [] Twi7ter Скачать
1 | 0
Фильмы 2019-2020 [DVDrip, WEB-DLRip, HDrip] (DUB, MVO) [ 1.46 GB ] Квин и Слим / Queen and Slim [2019 BDRip] - [] Twi7ter Скачать
2 | 0
Фильмы [HD 720p, 1080p] (Хороший звук DUB, MVO) [ 9.77 GB ] Квин и Слим / Queen and Slim [2019 BDRip 1080p] [] killermax2013 Скачать
15 | 0
Фильмы 2019-2020 [DVDrip, WEB-DLRip, HDrip] (DUB, MVO) [ 2.18 GB ] Квин и Слим / Queen and Slim [2019 BDRip] [] killermax2013 Скачать
1 | 0
Фильмы [HD 720p, 1080p] (Хороший звук DUB, MVO) [ 4.6 GB ] Квин и Слим / Queen and Slim [2019 BDRip 720p] [] killermax2013 Скачать
4 | 0
Фильмы 2019-2020 [DVDrip, WEB-DLRip, HDrip] (DUB, MVO) [ 1.46 GB ] Квин и Слим / Queen and Slim [2019 BDRip] [] killermax2013 Скачать
2 | 0

28-11-2019 20:33  

Отключить всю рекламу на сайте

    Дорогой пользователь! Огромная просьба, поблагодарите релизера, оцените раздачу и оставьте свои комментарий, если Вы скачали Квин и Слим через торрент бесплатно! Внесите свою лепту в развитие PiratBit!
    Комментировать посты могут только пользователи прошедшие не сложную регистрацию
    Показать сообщения:    

    Квин и Слим через торрент
    Скачать бесплатно Квин и Слим
    Квин и Слим скачать торрент
    Квин и Слим смотреть онлайн
    Cкачать фильм Квин и Слим бесплатно
    Квин и Слим скачать торрент в хорошем качестве
    Квин и Слим смотреть онлайн бесплатно в хорошем качестве


    Вы не можете начинать темы
    Вы не можете отвечать на сообщения
    Вы не можете редактировать свои сообщения
    Вы не можете удалять свои сообщения
    Вы не можете голосовать в опросах
    Вы не можете прикреплять файлы к сообщениям
    Вы можете скачивать файлы