Marvel's Avengers Deluxe Edition (супер цена) 159р. Внимание количество ограничено!!!

2 сезон

iTunes

iTunes

1

iTunes

iTunes

iTunes

WEBRip

iTunes

30
pack

Новость дня

ВАЖНО

!!Акция!!

Alien_RageХит недели

RePack

Horizon Zero Dawn

ИГРА 18+

pack

RePack

jed

!!Акция!!

Alien_Rage

RePack

fifa19

RePack

Assassins Creed: Odyssey

RePack

NEED FOR SPEED™ PAYBACK

4 сезон

9 сезон

Бесстыжие 9 сезон

Все сериалы

все сериалы на PB.wtf

RePack

FAR CRY 5
  

Дылда (Кантемир Балагов) [2019, Драма, военный, BDRip 1080p] [US Transfer / Лицензия] piratbit.pw

Дылда через торрент piratbit.pw

Размер: 21.79 GB | Добавлен: 3 мес. 18 д. назад | Торрент скачан:24 раза
Скачать  

03-06-2020 18:45 Дылда Скачать торрент  

Дылда
Год выпуска: 2019
Страна: Россия
Студия: Нон-стоп Продакшн
Жанр: Драма, военный
Продолжительность: 02:17:31
Перевод: Не требуется | Лицензия Blu-ray US
Субтитры: Английские (Forced)

Режиссер: Кантемир Балагов

rating

В ролях: Виктория Мирошниченко, Василиса Перелыгина, Андрей Быков, Игорь Широков, Константин Балакирев, Ксения Кутепова, Ольга Драгунова, Тимофей Глазков

Описание: История двух молодых женщин-фронтовичек, которые возвращаются в послевоенный Ленинград и пытаются обрести новую мирную жизнь, когда и вокруг, и главное, внутри них - руины.

Качество: BDRip 1080p | US Transfer
Формат: MKV

Видео: 1920x1040 (1, 85:1), 23, 976 fps, MPEG-4 AVC ~ 20, 5 Мbps avg, 0.429 bit/pixel
Аудио#1: AC3, 48 kHz, 6 ch, ~640.00 kbps avg | русский | Blu-ray US
Аудио#2: DTS, 48 kHz, 6 ch, ~1510.00 kbps avg | русский | Blu-ray US
скриншот  скриншот  скриншот  скриншот  скриншот  

Общее
Уникальный идентификатор : 138477183745531784489297135921820874654 (0x682DBC4859EF2611C859838A5128379E)
Полное имя : Dylda.2020.1080p.BluRay.DTS.x264.mkv
Формат : Matroska
Версия формата : Version 4
Размер файла : 21, 8 Гбайт
Продолжительность : 2 ч. 17 м.
Общий поток : 22, 7 Мбит/сек
Название фильма : Дылда (2019)
Дата кодирования : UTC 2020-06-03 18:05:38
Программа кодирования : mkvmerge v47.0.0 ('Black Flag') 64-bit
Библиотека кодирования : libebml v1.3.10 + libmatroska v1.5.2
Обложка : Yes
Attachments : cover.jpg

Видео
Идентификатор : 1
Формат : AVC
Формат/Информация : Advanced Video Codec
Профиль формата : High@L4.1
Настройки формата : CABAC / 4 Ref Frames
Параметр CABAC формата : Да
Параметр RefFrames формата : 4 кадра
Идентификатор кодека : V_MPEG4/ISO/AVC
Продолжительность : 2 ч. 17 м.
Битрейт : 20, 5 Мбит/сек
Ширина : 1 920 пикселей
Высота : 1 040 пикселей
Соотношение сторон : 1, 85:1
Режим частоты кадров : Постоянный
Частота кадров : 23, 976 (24000/1001) кадра/сек
Цветовое пространство : YUV
Субдискретизация насыщенности : 4:2:0
Битовая глубина : 8 бит
Тип развёртки : Прогрессивная
Бит/(Пиксели*Кадры) : 0.429
Размер потока : 19, 7 Гбайт (91%)
Библиотека кодирования : x264 core 160 r3000 33f9e14
Настройки программы : cabac=1 / ref=4 / deblock=1:-3:-3 / analyse=0x3:0x133 / me=umh / subme=9 / psy=1 / psy_rd=1.00:0.00 / mixed_ref=1 / me_range=32 / chroma_me=1 / trellis=2 / 8x8dct=1 / cqm=0 / deadzone=21, 11 / fast_pskip=0 / chroma_qp_offset=-2 / threads=24 / lookahead_threads=4 / sliced_threads=0 / nr=0 / decimate=0 / interlaced=0 / bluray_compat=0 / constrained_intra=0 / bframes=9 / b_pyramid=2 / b_adapt=2 / b_bias=0 / direct=3 / weightb=1 / open_gop=0 / weightp=2 / keyint=250 / keyint_min=23 / scenecut=40 / intra_refresh=0 / rc=crf / mbtree=0 / crf=19.0 / qcomp=0.60 / qpmin=0 / qpmax=69 / qpstep=4 / ip_ratio=1.40 / pb_ratio=1.30 / aq=3:0.88
Default : Да
Forced : Нет
Цветовой диапазон : Limited
Основные цвета : BT.709
Характеристики трансфера : BT.709
Коэффициенты матрицы : BT.709

Аудио #1
Идентификатор : 2
Формат : AC-3
Формат/Информация : Audio Coding 3
Коммерческое название : Dolby Digital
Идентификатор кодека : A_AC3
Продолжительность : 2 ч. 17 м.
Вид битрейта : Постоянный
Битрейт : 640 Кбит/сек
Каналы : 6 каналов
Channel layout : L R C LFE Ls Rs
Частота : 48, 0 КГц
Частота кадров : 31, 250 кадров/сек (1536 SPF)
Метод сжатия : С потерями
Размер потока : 630 Мбайт (3%)
Заголовок : Blu-ray US
Язык : Russian
Default : Да
Forced : Да

Аудио #2
Идентификатор : 3
Формат : DTS
Формат/Информация : Digital Theater Systems
Идентификатор кодека : A_DTS
Продолжительность : 2 ч. 17 м.
Вид битрейта : Постоянный
Битрейт : 1 510 Кбит/сек
Каналы : 6 каналов
Channel layout : C L R Ls Rs LFE
Частота : 48, 0 КГц
Частота кадров : 93, 750 кадра/сек (512 SPF)
Битовая глубина : 24 бит
Метод сжатия : С потерями
Размер потока : 1, 45 Гбайт (7%)
Заголовок : Blu-ray US
Язык : Russian
Default : Нет
Forced : Нет

Текст
Идентификатор : 4
Формат : UTF-8
Идентификатор кодека : S_TEXT/UTF8
Идентификатор кодека/Информация : UTF-8 Plain Text
Продолжительность : 2 ч. 11 м.
Битрейт : 20 бит/сек
Count of elements : 884
Размер потока : 20, 1 Кбайт (0%)
Заголовок : Forced
Язык : English
Default : Нет
Forced : Нет

Меню
00:00:00.000 : en:Chapter 01
00:13:12.333 : en:Chapter 02
00:27:17.719 : en:Chapter 03
00:39:30.410 : en:Chapter 04
00:52:52.419 : en:Chapter 05
01:04:27.113 : en:Chapter 06
01:17:39.822 : en:Chapter 07
01:31:40.245 : en:Chapter 08
01:48:10.359 : en:Chapter 09
02:02:24.379 : en:Chapter 10

piratbit.pw



Скачать Дылда через торрент https://i112.fastpic.ru/big/2020/0603/16/6519e43a8e1cf20429e5143ae2222916.jpg Скачать фильм Дылда через торрент бесплантно в хорошем качестве Описание: История двух молодых женщин-фронтовичек, которые возвращаются в послевоенный Ленинград и пытаются обрести новую мирную жизнь, ... 7.8 10 4
Торрент: Зарегистрирован [2020-06-03 18:45] · скачан: 24 раз
Статус: √ проверено
Размер: 21.79 GB
Как cкачать? Как скачать Дылда через торрент | qTorrent

% Раздел Тема Автор DL S | L
Наши новые фильмы 2018-2019 [ 826 MB ] Дылда [2019 военный HDRip Русский "BD USA"] coc900 Скачать
3 | 0
Наши новые фильмы 2018-2019 [ 2.18 GB ] Дылда [2019 военный BDRip] [US Transfer / ] bober100 Скачать
2 | 0
Наши новые фильмы 2018-2019 [ 1.46 GB ] Дылда [2019 военный BDRip] [US Transfer / ] bober100 Скачать
1 | 0
Наши фильмы (Blu-ray, BD-Remux, HDDVD) [ 44.07 GB ] Дылда [2019 военный Blu-ray 1080p] [US Transfer / ] bober100 Скачать
1 | 0
Наши фильмы (HD, WEB-DL 720p, 1080p) [ 11.67 GB ] Дылда [2019 военный BDRip 720p] [US Transfer / ] bober100 Скачать
1 | 0
Наши сериалы [ 6.32 GB ] Дылды / Сезон: 1 / Серии: 1-21 из 21 [2019 WEB-DLRip-AVC] bober100 Скачать
1 | 0
Наши фильмы (HD, WEB-DL 720p, 1080p) [ 5.36 GB ] Дылда [2019 WEB-DL 1080p] bober100 Скачать
2 | 0

28-11-2019 20:33  

Отключить всю рекламу на сайте

    Дорогой пользователь! Огромная просьба, поблагодарите релизера, оцените раздачу и оставьте свои комментарий, если Вы скачали Дылда через торрент бесплатно! Внесите свою лепту в развитие PiratBit!
    Комментировать посты могут только пользователи прошедшие не сложную регистрацию
    Показать сообщения:    

    Дылда через торрент
    Скачать бесплатно Дылда
    Дылда скачать торрент
    Дылда смотреть онлайн
    Cкачать фильм Дылда бесплатно
    Дылда скачать торрент в хорошем качестве
    Дылда смотреть онлайн бесплатно в хорошем качестве


    Вы не можете начинать темы
    Вы не можете отвечать на сообщения
    Вы не можете редактировать свои сообщения
    Вы не можете удалять свои сообщения
    Вы не можете голосовать в опросах
    Вы не можете прикреплять файлы к сообщениям
    Вы можете скачивать файлы