Ссылка на приватное зеркало нашего сайта всего за 1$. Внимание количество ограничено!!!

2 сезон

iTunes

iTunes

1

iTunes

iTunes

iTunes

WEBRip

iTunes

30
pack

Вам бонус

ВАЖНО

!!Акция!!

Alien_RageХит недели

RePack

Horizon Zero Dawn

ИГРА 18+

pack

RePack

jed

!!Акция!!

Alien_Rage

RePack

fifa19

RePack

Assassins Creed: Odyssey

RePack

NEED FOR SPEED™ PAYBACK

4 сезон

9 сезон

Бесстыжие 9 сезон

Все сериалы

все сериалы на PB.wtf

RePack

FAR CRY 5
  

Странники терпенья (Владимир Алеников) [2018, триллер, драма, WEB-DL 1080p] piratbit.pw

Странники терпенья через торрент piratbit.pw

Раздают: 2 [ 0 KB/s ]
Размер: 3.7 GB | Добавлен: 3 мес. 21 д. назад | Торрент скачан:42 раза
Скачать  

03-06-2020 16:10 Странники терпенья Скачать торрент  

Странники терпенья
Год выпуска: 2018
Страна: Россия
Выпущено: Sputnik Oy
Жанр: триллер, драма
Продолжительность: 01:39:05
Перевод: Не требуется
Субтитры: отсутствуют

Режиссер: Владимир Алеников

rating

В ролях: Константин Лавроненко, Майя Шопа, Александр Рапопорт, Наталия Фиссон, Ольга Страда, Ирина Фролова, Павел Демьянов, Варвара Рябова, Евгений Данчевский, Александр Конев

Описание: Модный преуспевающий фотограф Андрей Берг готовится к самой важной выставке в своей жизни. Он снова должен удивлять и доказывать, что на голову выше конкурентов. Как подарок судьбы он воспринимает свою встречу с юной глухонемой актрисой Мариной, которая оказывается прирожденной моделью. Одержимый поиском идеального кадра, Александр снова и снова продлевает фотосессию. Скоро девушка понимает, что стала заложницей творческих амбиций художника и романтическая история переходит в настоящий напряжённый триллер. Кто из героев одержит победу в этом смертоносном поединке? Что окажется важнее - любовь или ненависть?

Качество: WEB-DL 1080p
Формат: MKV

Видео: MPEG-4 AVC, ~ 5151 Kb/s, 1920x986, 25.000 FPS
Аудио: 48.0 kHz, AC3 Dolby Digital, 2/0 (L,R) ch, ~ 192 kbps
скриншот  скриншот  скриншот  скриншот  

Complete name: Stranniki.terpenya.2018.WEB-DL.1080p.ELEKTRI4KA.UNIONGANG.mkv
Format: Matroska
Format version: Version 4 / Version 2
File size: 3.70 GiB
Duration: 1 h 39 min
Overall bit rate: 5 345 kb/s
Movie name: .ELEKTRI4KA.UNIONGANG.
Encoded date: UTC 2020-06-02 18:11:35
Writing application: mkvmerge v8.3.0 ('Over the Horizon') 64bit
Writing library: libebml v1.3.1 + libmatroska v1.4.2

Video
ID: 1
Format: AVC
Format/Info: Advanced Video Codec
Format profile: High@L4
Format settings, CABAC: Yes
Format settings, Reference frames: 4 frames
Codec ID: V_MPEG4/ISO/AVC
Duration: 1 h 39 min
Bit rate: 5 151 kb/s
Width: 1 920 pixels
Height: 986 pixels
Display aspect ratio: 1.947
Frame rate mode: Constant
Frame rate: 25.000 FPS
Color space: YUV
Chroma subsampling: 4:2:0
Bit depth: 8 bits
Scan type: Progressive
Bits/(Pixel*Frame): 0.109
Stream size: 3.56 GiB (96%)
Language: Russian
Default: Yes
Forced: No
Color range: Limited
Color primaries: BT.709
Transfer characteristics: BT.709
Matrix coefficients: BT.709

Audio
ID: 2
Format: AC-3
Format/Info: Audio Coding 3
Mode extension: CM (complete main)
Format settings, Endianness: Big
Codec ID: A_AC3
Duration: 1 h 39 min
Bit rate mode: Constant
Bit rate: 192 kb/s
Channel(s): 2 channels
Channel positions: Front: L R
Sampling rate: 48.0 kHz
Frame rate: 31.250 FPS (1536 spf)
Bit depth: 16 bits
Compression mode: Lossy
Stream size: 136 MiB (4%)
Language: Russian
Default: Yes
Forced: No

Menu
00:00:00.000: en:Глава 1
00:04:29.920: en:Глава 2
00:10:09.200: en:Глава 3
00:16:23.280: en:Глава 4
00:26:46.520: en:Глава 5
00:32:03.000: en:Глава 6
00:38:24.520: en:Глава 7
00:46:10.160: en:Глава 8
00:55:11.520: en:Глава 9
01:03:44.640: en:Глава 10
01:08:37.080: en:Глава 11
01:19:07.800: en:Глава 12
01:26:37.120: en:Глава 13

piratbit.pw



Скачать Странники терпенья через торрент https://i5.imageban.ru/out/2020/06/02/0e7915848db90548a0f4daa459f2f725.png Скачать фильм Странники терпенья через торрент бесплантно в хорошем качестве Описание: Модный преуспевающий фотограф Андрей Берг готовится к самой важной выставке в своей жизни. Он снова должен удивлять и доказывать, ... 10 10 6
Торрент: Зарегистрирован [2020-06-03 16:10] · скачан: 42 раз
Статус: T временная
Размер: 3.7 GB
Как cкачать? Как скачать Странники терпенья через торрент | qTorrent

% Раздел Тема Автор DL S | L
T Наши новые фильмы 2018-2019 [ 1.46 GB ] Странники терпенья [2018 WEB-DLRip] bober100 Скачать
2 | 0

28-11-2019 20:33  

Отключить всю рекламу на сайте

    Дорогой пользователь! Огромная просьба, поблагодарите релизера, оцените раздачу и оставьте свои комментарий, если Вы скачали Странники терпенья через торрент бесплатно! Внесите свою лепту в развитие PiratBit!
    Комментировать посты могут только пользователи прошедшие не сложную регистрацию
    Показать сообщения:    

    Странники терпенья через торрент
    Скачать бесплатно Странники терпенья
    Странники терпенья скачать торрент
    Странники терпенья смотреть онлайн
    Cкачать фильм Странники терпенья бесплатно
    Странники терпенья скачать торрент в хорошем качестве
    Странники терпенья смотреть онлайн бесплатно в хорошем качестве


    Вы не можете начинать темы
    Вы не можете отвечать на сообщения
    Вы не можете редактировать свои сообщения
    Вы не можете удалять свои сообщения
    Вы не можете голосовать в опросах
    Вы не можете прикреплять файлы к сообщениям
    Вы можете скачивать файлы