Ссылка на приватное зеркало нашего сайта всего за 1$. Внимание количество ограничено!!!

2 сезон

iTunes

1 сезон

1

2 сезон

2 сезон

iTunes

1 сезон

RePack

30

Ultimate

ВАЖНО

ИГРА 18+

pack

RePack

MK11
pack

Забери бонус

RePack

jed

!!Акция!!

Alien_Rage

RePack

fifa19

RePack

Assassins Creed: Odyssey

RePack

NEED FOR SPEED™ PAYBACK

4 сезон

9 сезон

Бесстыжие 9 сезон

Все сериалы

все сериалы на PB.wtf

RePack

FAR CRY 5
  

Квин и Слим / Queen & Slim (Мелина Матсукас) [2019, Драма, мелодрама, криминал, BDRip-AVC] DUB [Лицензия] piratbit.pw

Квин и Слим через торрент piratbit.pw

Размер: 2.9 GB | Добавлен: 5 мес. 25 д. назад | Торрент скачан:39 раз
Скачать  

02-06-2020 16:48 Квин и Слим Скачать торрент  

Квин и Слим | Queen & Slim
Год выпуска: 2019
Страна: США, Канада
Студия: BRON Studios, 3Blackdot, Creative Wealth Media Finance
Жанр: Драма, мелодрама, криминал
Продолжительность: 02:12:23
Перевод: Дублированный | Лицензия
Субтитры: Русские (Forced, full), английские (Full, SDH)

Режиссер: Мелина Матсукас

rating

В ролях: Дэниэл Калуя, Джоди Тёрнер-Смит, Боким Вудбайн, Клоэ Севиньи, Фли, Стерджил Симпсон, Индия Мур, Бенито Мартинес, Джахи Диалло Уинстон, Грэйлен Брайант Бэнкс

Описание: Не самое удачное свидание из-за встречи с патрульным превращается в историю о погоне и любви, где два человека вынуждены бежать не куда, а откуда. И пока одни думают о выживании, для других эта парочка превращается в символ травмы и боли.

Качество: BDRip-AVC
Формат: MKV

Видео: 1024x428 (2, 40:1), 23, 976 fps, MPEG-4 AVC ~ 2236 Kbps avg, 0.213 bit/pixel
Аудио#1: AC3, 48 kHz, 6 ch, ~448.00 kbps avg | русский | Blu-ray EUR
Аудио#2: AC3, 48 kHz, 6 ch, ~448.00 kbps avg | английский | Оригинал
скриншот  скриншот  скриншот  скриншот  скриншот  

Общее
Уникальный идентификатор : 306900172406957586995495525736484186357 (0xE6E2D2BD1438FA87AE65D7D12D2028F5)
Полное имя : Queen.and.Slim.2019.Lic.BDRip.2.90Gb.x264.mkv
Формат : Matroska
Версия формата : Version 4
Размер файла : 2, 90 Гбайт
Продолжительность : 2 ч. 12 м.
Общий поток : 3 134 Кбит/сек
Название фильма : Квин и Слим / Queen & Slim (2019)
Дата кодирования : UTC 2020-06-02 15:18:07
Программа кодирования : mkvmerge v47.0.0 ('Black Flag') 64-bit
Библиотека кодирования : libebml v1.3.10 + libmatroska v1.5.2
Обложка : Yes
Attachments : cover.jpg

Видео
Идентификатор : 1
Формат : AVC
Формат/Информация : Advanced Video Codec
Профиль формата : High@L4.1
Настройки формата : CABAC / 10 Ref Frames
Параметр CABAC формата : Да
Параметр RefFrames формата : 10 кадров
Идентификатор кодека : V_MPEG4/ISO/AVC
Продолжительность : 2 ч. 12 м.
Битрейт : 2 236 Кбит/сек
Ширина : 1 024 пикселя
Высота : 428 пикселей
Соотношение сторон : 2, 40:1
Режим частоты кадров : Постоянный
Частота кадров : 23, 976 кадра/сек
Цветовое пространство : YUV
Субдискретизация насыщенности : 4:2:0
Битовая глубина : 8 бит
Тип развёртки : Прогрессивная
Бит/(Пиксели*Кадры) : 0.213
Размер потока : 2, 07 Гбайт (71%)
Заголовок : #stillet
Библиотека кодирования : x264 core 152 r2851bm ba24899
Настройки программы : cabac=1 / ref=10 / deblock=1:-3:-3 / analyse=0x3:0x113 / me=umh / subme=11 / psy=1 / psy_rd=1.00:0.15 / mixed_ref=1 / me_range=32 / chroma_me=1 / trellis=2 / 8x8dct=1 / cqm=0 / deadzone=21, 11 / fast_pskip=0 / chroma_qp_offset=-3 / threads=8 / lookahead_threads=3 / sliced_threads=0 / nr=0 / decimate=0 / interlaced=0 / bluray_compat=0 / constrained_intra=0 / bframes=11 / b_pyramid=2 / b_adapt=2 / b_bias=0 / direct=3 / weightb=1 / open_gop=0 / weightp=2 / keyint=240 / keyint_min=23 / scenecut=40 / intra_refresh=0 / rc=2pass / mbtree=0 / bitrate=2236 / ratetol=1.0 / qcomp=0.60 / qpmin=0 / qpmax=69 / qpstep=4 / cplxblur=20.0 / qblur=0.5 / ip_ratio=1.40 / pb_ratio=1.30 / aq=1:1.00
Язык : English
Default : Да
Forced : Нет

Аудио #1
Идентификатор : 2
Формат : AC-3
Формат/Информация : Audio Coding 3
Коммерческое название : Dolby Digital
Идентификатор кодека : A_AC3
Продолжительность : 2 ч. 12 м.
Вид битрейта : Постоянный
Битрейт : 448 Кбит/сек
Каналы : 6 каналов
Channel layout : L R C LFE Ls Rs
Частота : 48, 0 КГц
Частота кадров : 31, 250 кадров/сек (1536 SPF)
Метод сжатия : С потерями
Размер потока : 424 Мбайт (14%)
Заголовок : Blu-ray EUR
Язык : Russian
Default : Да
Forced : Да

Аудио #2
Идентификатор : 3
Формат : AC-3
Формат/Информация : Audio Coding 3
Коммерческое название : Dolby Digital
Идентификатор кодека : A_AC3
Продолжительность : 2 ч. 12 м.
Вид битрейта : Постоянный
Битрейт : 448 Кбит/сек
Каналы : 6 каналов
Channel layout : L R C LFE Ls Rs
Частота : 48, 0 КГц
Частота кадров : 31, 250 кадров/сек (1536 SPF)
Метод сжатия : С потерями
Размер потока : 424 Мбайт (14%)
Заголовок : Original
Язык : English
Default : Нет
Forced : Нет

Текст #1
Идентификатор : 4
Формат : UTF-8
Идентификатор кодека : S_TEXT/UTF8
Идентификатор кодека/Информация : UTF-8 Plain Text
Продолжительность : 2 ч. 6 м.
Битрейт : 0 бит/сек
Count of elements : 16
Размер потока : 662 байт (0%)
Заголовок : Forced [Blu-Ray EUR]
Язык : Russian
Default : Да
Forced : Да

Текст #2
Идентификатор : 5
Формат : UTF-8
Идентификатор кодека : S_TEXT/UTF8
Идентификатор кодека/Информация : UTF-8 Plain Text
Продолжительность : 2 ч. 11 м.
Битрейт : 62 бит/сек
Count of elements : 1393
Размер потока : 60, 2 Кбайт (0%)
Заголовок : Full [Blu-Ray EUR]
Язык : Russian
Default : Нет
Forced : Нет

Текст #3
Идентификатор : 6
Формат : UTF-8
Идентификатор кодека : S_TEXT/UTF8
Идентификатор кодека/Информация : UTF-8 Plain Text
Продолжительность : 2 ч. 10 м.
Битрейт : 53 бит/сек
Count of elements : 1594
Размер потока : 50, 9 Кбайт (0%)
Заголовок : Full
Язык : English
Default : Нет
Forced : Нет

Текст #4
Идентификатор : 7
Формат : UTF-8
Идентификатор кодека : S_TEXT/UTF8
Идентификатор кодека/Информация : UTF-8 Plain Text
Продолжительность : 2 ч. 10 м.
Битрейт : 59 бит/сек
Count of elements : 1819
Размер потока : 56, 8 Кбайт (0%)
Заголовок : SDH
Язык : English
Default : Нет
Forced : Нет

Меню
00:00:00.000 : en:Chapter 01
00:05:46.763 : en:Chapter 02
00:14:20.109 : en:Chapter 03
00:18:58.637 : en:Chapter 04
00:24:56.662 : en:Chapter 05
00:31:21.880 : en:Chapter 06
00:36:06.039 : en:Chapter 07
00:41:30.822 : en:Chapter 08
00:50:09.924 : en:Chapter 09
00:58:42.102 : en:Chapter 10
01:05:56.703 : en:Chapter 11
01:11:14.520 : en:Chapter 12
01:16:44.725 : en:Chapter 13
01:23:59.826 : en:Chapter 14
01:28:45.612 : en:Chapter 15
01:34:28.830 : en:Chapter 16
01:42:10.291 : en:Chapter 17
01:50:00.469 : en:Chapter 18
01:56:02.247 : en:Chapter 19
02:04:41.140 : en:Chapter 20

piratbit.pw



Скачать Квин и Слим через торрент https://i112.fastpic.ru/big/2020/0602/48/0d044cc12338ff0389117c3f2ca36348.jpg Скачать фильм Квин и Слим через торрент бесплантно в хорошем качестве Описание: Не самое удачное свидание из-за встречи с патрульным превращается в историю о погоне и любви, где два человека вынуждены бежать ... 10 10 5
Торрент: Зарегистрирован [2020-06-02 16:48] · скачан: 39 раз
Статус: √ проверено
Размер: 2.9 GB
Как cкачать? Как скачать Квин и Слим через торрент | qTorrent

28-11-2019 20:33  

Отключить всю рекламу на сайте

    Дорогой пользователь! Огромная просьба, поблагодарите релизера, оцените раздачу и оставьте свои комментарий, если Вы скачали Квин и Слим через торрент бесплатно! Внесите свою лепту в развитие PiratBit!
    Комментировать посты могут только пользователи прошедшие не сложную регистрацию
    Показать сообщения:    

    Квин и Слим через торрент
    Скачать бесплатно Квин и Слим
    Квин и Слим скачать торрент
    Квин и Слим смотреть онлайн
    Cкачать фильм Квин и Слим бесплатно
    Квин и Слим скачать торрент в хорошем качестве
    Квин и Слим смотреть онлайн бесплатно в хорошем качестве


    Вы не можете начинать темы
    Вы не можете отвечать на сообщения
    Вы не можете редактировать свои сообщения
    Вы не можете удалять свои сообщения
    Вы не можете голосовать в опросах
    Вы не можете прикреплять файлы к сообщениям
    Вы можете скачивать файлы