1 сезон

1 сезон

iTunes

1

КиноПоиск HD

Кинопоиск HD

iTunes

13

1 сезон

RePack

30

Ultimate

ВАЖНО

ИГРА 18+

pack

RePack

MK11
pack

Легкие деньги

RePack

jed

RePack

fifa19

RePack

RDR2

RePack

NEED FOR SPEED™ PAYBACK

4 сезон

9 сезон

Бесстыжие 9 сезон

Все сериалы

все сериалы на PB.wtf

RePack

FAR CRY 5
  
Magnet ссылка

Беглецы компьютерных сетей / Virtual Combat (Эндрю Стивенс) [1995 г., фантастика, боевик, DVDRip] 2xAVO (Живов, Визгунов) piratbit.pw

Беглецы компьютерных сетей через торрент piratbit.pw

Размер: 1.47 GB | Добавлен: 10 мес. назад | Торрент скачан:10 раз
Скачать  

31-05-2020 21:10 Беглецы компьютерных сетей Скачать торрент  

Беглецы компьютерных сетей / Virtual Combat
Год выпуска: 1995

Страна: США

Жанр: Фантастика, боевик

Продолжительность: 01:27:01

Перевод: Авторский (одноголосый)

Режиссер: Эндрю Стивенс

rating

В ролях: Дон «Дракон» Уилсон, Майкл Бернардо, Доун Энн Биллингс, Кэрри Митчэм, Майкл Дорн, Ларри Поиндекстер, Рип Тейлор, Джонни Уильямс, Рон Баркер, Гилберт Льюис

Описание: Ближайшее будущее. Лас-Вегас превратился в крупнейшую аркаду виртуальной реальности, изобилующую "запретными играми". Дэвид Куори – лучший сотрудник пограничного патруля компьютерной сети Лас-Вегаса. Он преследует наиболее опасных преступников. Когда на волю вырывается злодей компьютерной игры Данте, на его пути встает Куори. Он должен любой ценой помешать Данте, который планирует освободить целую армию самых жутких злодеев виртуальной реальности.
Качество: DVDRip
Формат: AVI
Видео: XviD, 2014 Кбит/с, 704x544, 25 кадр/с
Аудио#1: Русский, AC3, 2 ch, 192 Кбит/сек - AVO (Юрий Живов)
Аудио#2: Русский, AC3, 2 ch, 192 Кбит/сек - AVO (Сергей Визгунов)
Видео
Идентификатор : 0
Формат : MPEG-4 Visual
Профиль формата : Advanced Simple@L5
Настройки формата : BVOP2 / Custom Matrix
Параметр BVOP формата : 2
Параметр QPel формата : Нет
Параметр GMC формата : Без точки перехода
Параметр матрицы формата : Выборочная
Идентификатор кодека : XVID
Идентификатор кодека/Подсказка : XviD
Продолжительность : 1 ч. 27 м.
Битрейт : 2014 Кбит/сек
Ширина : 704 пикселя
Высота : 544 пикселя
Соотношение сторон : 1,294
Частота кадров : 25,000 кадров/сек
Цветовое пространство : YUV
Субдискретизация насыщенности : 4:2:0
Битовая глубина : 8 бит
Тип развёртки : Прогрессивная
Метод сжатия : С потерями
Бит/(Пиксели*Кадры) : 0.210
Размер потока : 1,22 Гбайт (83%)
Библиотека кодирования : XviD 73

Аудио #1
Идентификатор : 1
Формат : AC-3
Формат/Информация : Audio Coding 3
Коммерческое название : Dolby Digital
Идентификатор кодека : 2000
Продолжительность : 1 ч. 27 м.
Вид битрейта : Постоянный
Битрейт : 192 Кбит/сек
Каналы : 2 канала
ChannelLayout : L R
Частота : 48,0 КГц
Частота кадров : 31,250 кадров/сек (1536 SPF)
Метод сжатия : С потерями
Размер потока : 120 Мбайт (8%)
Выравнивание : Разделение по промежуткам
Продолжительность промежутка : 40 мс. (1,00 видеокадр)
Время предзагрузки промежутка : 500 мс.
ServiceKind/String : Complete Main

Аудио #2
Идентификатор : 2
Формат : AC-3
Формат/Информация : Audio Coding 3
Коммерческое название : Dolby Digital
Идентификатор кодека : 2000
Продолжительность : 1 ч. 27 м.
Вид битрейта : Постоянный
Битрейт : 192 Кбит/сек
Каналы : 2 канала
ChannelLayout : L R
Частота : 48,0 КГц
Частота кадров : 31,250 кадров/сек (1536 SPF)
Метод сжатия : С потерями
Размер потока : 120 Мбайт (8%)
Выравнивание : Разделение по промежуткам
Продолжительность промежутка : 40 мс. (1,00 видеокадр)
Время предзагрузки промежутка : 500 мс.
ServiceKind/String : Complete Main

скриншот   скриншот   скриншот   скриншот  

piratbit.pw



Скачать Беглецы компьютерных сетей через торрент https://pic1.kartinco.top/images/12/da5l6.jpg Скачать фильм Беглецы компьютерных сетей через торрент бесплантно в хорошем качестве Описание: Ближайшее будущее. Лас-Вегас превратился в крупнейшую аркаду виртуальной реальности, изобилующую "запретными играми". Дэвид Куори ... 10 10 3
Торрент: Зарегистрирован [2020-05-31 21:10] · скачан: 10 раз
Статус: √ проверено
Размер: 1.47 GB
Как cкачать? Как скачать Беглецы компьютерных сетей через торрент | UTorrent

28-11-2019 20:33  

Отключить всю рекламу на сайте

31-05-2020 21:26 Беглецы компьютерных сетей Скачать торрент  

Цитата:

злодей компьютерной игры Данте


на третьем скрине piratbit.pw



    Дорогой пользователь! Огромная просьба, поблагодарите релизера, оцените раздачу и оставьте свои комментарий, если Вы скачали Беглецы компьютерных сетей через торрент бесплатно! Внесите свою лепту в развитие PiratBit!
    Комментировать посты могут только пользователи прошедшие не сложную регистрацию
    Показать сообщения:    

    Беглецы компьютерных сетей через торрент
    Скачать бесплатно Беглецы компьютерных сетей
    Беглецы компьютерных сетей скачать торрент
    Беглецы компьютерных сетей смотреть онлайн
    Cкачать фильм Беглецы компьютерных сетей бесплатно
    Беглецы компьютерных сетей скачать торрент в хорошем качестве
    Беглецы компьютерных сетей смотреть онлайн бесплатно в хорошем качестве


    Вы не можете начинать темы
    Вы не можете отвечать на сообщения
    Вы не можете редактировать свои сообщения
    Вы не можете удалять свои сообщения
    Вы не можете голосовать в опросах
    Вы не можете прикреплять файлы к сообщениям
    Вы можете скачивать файлы