Ссылка на приватное зеркало нашего сайта всего за 1$. Внимание количество ограничено!!!

2 сезон

iTunes

iTunes

1

iTunes

iTunes

iTunes

WEBRip

iTunes

30
pack

Новость дня

ВАЖНО

!!Акция!!

Alien_RageХит недели

RePack

Horizon Zero Dawn

ИГРА 18+

pack

RePack

jed

!!Акция!!

Alien_Rage

RePack

fifa19

RePack

Assassins Creed: Odyssey

RePack

NEED FOR SPEED™ PAYBACK

4 сезон

9 сезон

Бесстыжие 9 сезон

Все сериалы

все сериалы на PB.wtf

RePack

FAR CRY 5
  

Теснота (Кантемир Балагов) [2017, Драма, BDRip 720p] [FRA Transfer / Лицензия] piratbit.pw

Теснота через торрент piratbit.pw

Размер: 7.45 GB | Добавлен: 3 мес. 22 д. назад | Торрент скачан:19 раз
Скачать  

31-05-2020 19:08 Теснота Скачать торрент  

Теснота
Год выпуска: 2017
Страна: Россия
Жанр: Драма
Продолжительность: 01:58:07
Перевод: Не требуется | Лицензия Blu-ray FRA
Субтитры: Русские (хардсаб)

Режиссер: Кантемир Балагов



В ролях: Дарья Жовнер, Ольга Драгунова, Артем Цыпин, Вениамин Кац, Назир Жуков, Егор Шевяков

Описание: 1998 год, Нальчик. Илана — девочка-подросток из хорошей семьи, которая все делает наоборот. Перечит матери. Спорит с отцом. Чинит машины в автомастерской, не вылезая из спецодежды. Встречается с парнем, который не нравится ее родителям. Пацанка и красавица, она идет своим путем и жаждет свободы, но когда в доме происходит страшная трагедия, именно Илана оказывается единственной, кто способен спасти семью. Однако какой ценой?

Качество: BDRip 720p | FRA Transfer
Формат: MKV

Видео: 974x720 (4:3), 25 fps, MPEG-4 AVC ~ 6878 Кbps avg, 0.392 bit/pixel
Аудио#1: AC3, 48 kHz, 6 ch, ~640.00 kbps avg | русский | Blu-ray FRA
Аудио#2: DTS, 48 kHz, 6 ch, ~1510.00 kbps avg | русский | Blu-ray FRA
скриншот  скриншот  скриншот  скриншот  скриншот  

Общее
Уникальный идентификатор : 255099266335229482258814639149673310662 (0xBFEA54E2994B130D0FED7912896F69C6)
Полное имя : Tesnota.2017.720p.BluRay.DTS.x264.mkv
Формат : Matroska
Версия формата : Version 4
Размер файла : 7,45 Гбайт
Продолжительность : 1 ч. 58 м.
Общий поток : 9030 Кбит/сек
Название фильма : Теснота (2017)
Дата кодирования : UTC 2020-05-30 09:16:09
Программа кодирования : mkvmerge v46.0.0 ('No Deeper Escape') 64-bit
Библиотека кодирования : libebml v1.3.10 + libmatroska v1.5.2
Обложка : Yes
Attachments : cover.jpg

Видео
Идентификатор : 1
Формат : AVC
Формат/Информация : Advanced Video Codec
Профиль формата : High@L4.1
Настройки формата : CABAC / 9 Ref Frames
Параметр CABAC формата : Да
Параметр RefFrames формата : 9 кадров
Идентификатор кодека : V_MPEG4/ISO/AVC
Продолжительность : 1 ч. 58 м.
Битрейт : 6878 Кбит/сек
Ширина : 974 пикселя
Высота : 720 пикселей
Соотношение сторон : 4:3
Режим частоты кадров : Постоянный
Частота кадров : 25,000 кадров/сек
Цветовое пространство : YUV
Субдискретизация насыщенности : 4:2:0
Битовая глубина : 8 бит
Тип развёртки : Прогрессивная
Бит/(Пиксели*Кадры) : 0.392
Размер потока : 5,67 Гбайт (76%)
Заголовок : #stillet
Библиотека кодирования : x264 core 152 r2851bm ba24899
Настройки программы : cabac=1 / ref=9 / deblock=1:-3:-3 / analyse=0x3:0x113 / me=umh / subme=11 / psy=1 / psy_rd=1.00:0.15 / mixed_ref=1 / me_range=32 / chroma_me=1 / trellis=2 / 8x8dct=1 / cqm=0 / deadzone=21,11 / fast_pskip=0 / chroma_qp_offset=-3 / threads=8 / lookahead_threads=3 / sliced_threads=0 / nr=0 / decimate=0 / interlaced=0 / bluray_compat=0 / constrained_intra=0 / bframes=11 / b_pyramid=2 / b_adapt=2 / b_bias=0 / direct=3 / weightb=1 / open_gop=0 / weightp=2 / keyint=250 / keyint_min=25 / scenecut=40 / intra_refresh=0 / rc_lookahead=40 / rc=2pass / mbtree=0 / bitrate=6878 / ratetol=1.0 / qcomp=0.60 / qpmin=0 / qpmax=69 / qpstep=4 / cplxblur=20.0 / qblur=0.5 / vbv_maxrate=50000 / vbv_bufsize=62500 / nal_hrd=none / filler=0 / ip_ratio=1.40 / pb_ratio=1.30 / aq=1:1.00
Язык : French
Default : Да
Forced : Нет

Аудио #1
Идентификатор : 2
Формат : AC-3
Формат/Информация : Audio Coding 3
Коммерческое название : Dolby Digital
Идентификатор кодека : A_AC3
Продолжительность : 1 ч. 58 м.
Вид битрейта : Постоянный
Битрейт : 640 Кбит/сек
Каналы : 6 каналов
ChannelLayout : L R C LFE Ls Rs
Частота : 48,0 КГц
Частота кадров : 31,250 кадров/сек (1536 SPF)
Метод сжатия : С потерями
Размер потока : 541 Мбайт (7%)
Заголовок : Blu-ray FRA
Язык : Russian
Default : Да
Forced : Да

Аудио #2
Идентификатор : 3
Формат : DTS
Формат/Информация : Digital Theater Systems
Идентификатор кодека : A_DTS
Продолжительность : 1 ч. 58 м.
Вид битрейта : Постоянный
Битрейт : 1510 Кбит/сек
Каналы : 6 каналов
ChannelLayout : C L R Ls Rs LFE
Частота : 48,0 КГц
Частота кадров : 93,750 кадра/сек (512 SPF)
Битовая глубина : 24 бит
Метод сжатия : С потерями
Размер потока : 1,25 Гбайт (17%)
Заголовок : Blu-ray FRA
Язык : Russian
Default : Нет
Forced : Нет

Меню
00:10:07.360 : :Глава 01
00:20:37.038 : :Глава 02
00:31:22.558 : :Глава 03
00:40:34.719 : :Глава 04
00:49:38.199 : :Глава 05
01:00:12.760 : :Глава 06
01:08:01.159 : :Глава 07
01:18:29.920 : :Глава 08
01:29:41.118 : :Глава 09
01:41:22.520 : :Глава 10
01:54:32.359 : :Глава 11
01:58:07.279 : :Глава 12

piratbit.pw



Скачать Теснота через торрент https://i112.fastpic.ru/big/2020/0531/53/d1a1476d7fa113bbc6846d6443e67d53.jpg Скачать фильм Теснота через торрент бесплантно в хорошем качестве Описание: 1998 год, Нальчик. Илана — девочка-подросток из хорошей семьи, которая все делает наоборот. Перечит матери. Спорит с отцом. Чинит ... 10 10 2
Торрент: Зарегистрирован [2020-05-31 19:08] · скачан: 19 раз
Статус: √ проверено
Размер: 7.45 GB
Как cкачать? Как скачать Теснота через торрент | qTorrent

% Раздел Тема Автор DL S | L
Наши новые фильмы 2017 [ 2.18 GB ] Теснота [2017 BDRip] [Русский] [] Twi7ter Скачать
2 | 0
Наши новые фильмы 2017 [ 1.46 GB ] Теснота [2017 BDRip] [Русский] [] Twi7ter Скачать
3 | 0
Наши фильмы (HD, WEB-DL 720p, 1080p) [ 11.41 GB ] Теснота [2017 BDRip 1080p] [FRA Transfer / ] bober100 Скачать
2 | 0
Наши новые фильмы 2017 [ 2.18 GB ] Теснота [2017 BDRip] [] bober100 Скачать
1 | 0
Наши новые фильмы 2017 [ 746 MB ] Теснота [2017 Россия WEB-DLRip-AVC] sokol_ok Скачать
2 | 0
Наши новые фильмы 2017 [ 1.49 GB ] Теснота [2017 Россия WEB-DLRip-AVC] sokol_ok Скачать
3 | 0
Наши фильмы (HD, WEB-DL 720p, 1080p) [ 4.06 GB ] Теснота [2017 WEB-DL 1080p] bober100 Скачать
1 | 0

28-11-2019 20:33  

Отключить всю рекламу на сайте

    Дорогой пользователь! Огромная просьба, поблагодарите релизера, оцените раздачу и оставьте свои комментарий, если Вы скачали Теснота через торрент бесплатно! Внесите свою лепту в развитие PiratBit!
    Комментировать посты могут только пользователи прошедшие не сложную регистрацию
    Показать сообщения:    

    Теснота через торрент
    Скачать бесплатно Теснота
    Теснота скачать торрент
    Теснота смотреть онлайн
    Cкачать фильм Теснота бесплатно
    Теснота скачать торрент в хорошем качестве
    Теснота смотреть онлайн бесплатно в хорошем качестве


    Вы не можете начинать темы
    Вы не можете отвечать на сообщения
    Вы не можете редактировать свои сообщения
    Вы не можете удалять свои сообщения
    Вы не можете голосовать в опросах
    Вы не можете прикреплять файлы к сообщениям
    Вы можете скачивать файлы