Ссылка на приватное зеркало нашего сайта всего за 1$. Внимание количество ограничено!!!

2 сезон

iTunes

1 сезон

1

2 сезон

2 сезон

iTunes

1 сезон

RePack

30

Ultimate

ВАЖНО

ИГРА 18+

pack

RePack

MK11
pack

Забери бонус

RePack

jed

!!Акция!!

Alien_Rage

RePack

fifa19

RePack

Assassins Creed: Odyssey

RePack

NEED FOR SPEED™ PAYBACK

4 сезон

9 сезон

Бесстыжие 9 сезон

Все сериалы

все сериалы на PB.wtf

RePack

FAR CRY 5
  

Настоящие боссы / Гламурные боссы / Like a Boss (Мигель Артета) [2020, Комедия, BDRip-AVC] DUB [iTunes] - ExKinoRay piratbit.pw

Настоящие боссы через торрент piratbit.pw

Раздают: 1 [ 0 KB/s ]
Размер: 2.03 GB | Добавлен: 5 мес. 25 д. назад | Торрент скачан:183 раза
Скачать  

30-05-2020 16:45 Настоящие боссы Скачать торрент  

Настоящие боссы / Гламурные боссы / Like a Boss
Год выпуска: 2020
Страна: США / Artists First, Paramount Pictures
Жанр: Комедия
Продолжительность: 01:23:25
Перевод: Дублированный | iTunes
Субтитры: Русские (Forced, full), английские

Режиссер: Мигель Артета

rating

В ролях: Роуз Бирн, Тиффани Хэддиш, Сальма Хайек, Билли Портер, Дженнифер Кулидж, Эри Грейнор, Каран Сони, Райан Хансен, Джессика Ст. Клер, Джейкоб Латимор

Описание: Будучи лучшими подругами ещё с колледжа, Миа и Мел управляют небольшой косметической компанией, которую создали с нуля. Девушки всё делают вместе и даже живут в одном доме. Их бизнес находится на грани разорения, когда подруги получают предложение, от которого невозможно отказаться — титан отрасли Клэр Луна предлагает оплатить их долги в обмен на долю в компании. Мел видит в этом спасение, а Миа, хоть и подозревает неладное, но тоже соглашается, и теперь многолетней дружбе девушек предстоит проверка на прочность.

Качество: BDRip-AVC
Формат: MKV
Видео кодек: H.264
Аудио кодек: AC3
Видео: MPEG-4 AVC, 2648 Кбит/с, 1024x424
Аудио#1: Русский (AC3, 6 ch, 384 Кбит/с) DUB (iTunes)
Аудио#2: Английский (AC3, 6 ch, 448 Кбит/с) Original

Релиз от:
Общее
Уникальный идентификатор : 210508739865544513823939544945835830051 (0x9E5E82316573114EA1D33929842AEB23)
Полное имя : D:\Раздача\Bossy.2020.BDRip-AVC.ExKinoRay.mkv
Формат : Matroska
Версия формата : Version 4 / Version 2
Размер файла : 2,03 Гбайт
Продолжительность : 1 ч. 23 м.
Общий поток : 3482 Кбит/сек
Название фильма : Like a Boss.2020.BDRip-AVC.grab777 & ExKinoRay
Дата кодирования : UTC 2020-05-30 14:46:03
Программа кодирования : mkvmerge v7.3.0 ('Nouages') 64bit built on Oct 22 2014 18:53:34
Библиотека кодирования : libebml v1.3.0 + libmatroska v1.4.1

Видео
Идентификатор : 1
Формат : AVC
Формат/Информация : Advanced Video Codec
Профиль формата : High@L4.1
Настройки формата : CABAC / 12 Ref Frames
Параметр CABAC формата : Да
Параметр RefFrames формата : 12 кадров
Идентификатор кодека : V_MPEG4/ISO/AVC
Продолжительность : 1 ч. 23 м.
Битрейт : 2648 Кбит/сек
Ширина : 1024 пикселя
Высота : 424 пикселя
Соотношение сторон : 2,40:1
Соотношение сторон в оригинале : 2,40:1
Режим частоты кадров : Переменный
Частота кадров : 23,976 кадра/сек
Цветовое пространство : YUV
Субдискретизация насыщенности : 4:2:0
Битовая глубина : 8 бит
Тип развёртки : Прогрессивная
Бит/(Пиксели*Кадры) : 0.254
Размер потока : 1,54 Гбайт (76%)
Заголовок : Rip by grab777
Библиотека кодирования : x264 core 148 r2665M a01e339
Настройки программы : cabac=1 / ref=12 / deblock=1:-2:-2 / analyse=0x3:0x113 / me=umh / subme=10 / psy=1 / psy_rd=1.00:0.15 / mixed_ref=1 / me_range=32 / chroma_me=1 / trellis=2 / 8x8dct=1 / cqm=0 / deadzone=21,11 / fast_pskip=1 / chroma_qp_offset=-3 / threads=5 / lookahead_threads=1 / sliced_threads=0 / nr=0 / decimate=1 / interlaced=0 / bluray_compat=0 / constrained_intra=0 / bframes=10 / b_pyramid=2 / b_adapt=2 / b_bias=0 / direct=3 / weightb=1 / open_gop=0 / weightp=2 / keyint=230 / keyint_min=23 / scenecut=40 / intra_refresh=0 / rc_lookahead=40 / rc=crf / mbtree=0 / crf=15.0 / qcomp=0.60 / qpmin=0 / qpmax=69 / qpstep=4 / vbv_maxrate=30000 / vbv_bufsize=40000 / crf_max=0.0 / nal_hrd=none / filler=0 / ip_ratio=1.40 / pb_ratio=1.30 / aq=1:1.00
Язык : English
Default : Да
Forced : Нет

Аудио #1
Идентификатор : 2
Формат : AC-3
Формат/Информация : Audio Coding 3
Параметр Endianness формата : Big
Идентификатор кодека : A_AC3
Продолжительность : 1 ч. 23 м.
Вид битрейта : Постоянный
Битрейт : 384 Кбит/сек
Каналы : 6 каналов
Расположение каналов : Front: L C R, Side: L R, LFE
Частота : 48,0 КГц
Частота кадров : 31,250 кадров/сек (1536 SPF)
Битовая глубина : 16 бит
Метод сжатия : С потерями
Размер потока : 229 Мбайт (11%)
Заголовок : DUB (iTunes)
Язык : Russian
ServiceKind/String : Complete Main
Default : Да
Forced : Да

Аудио #2
Идентификатор : 3
Формат : AC-3
Формат/Информация : Audio Coding 3
Параметр Endianness формата : Big
Идентификатор кодека : A_AC3
Продолжительность : 1 ч. 23 м.
Вид битрейта : Постоянный
Битрейт : 448 Кбит/сек
Каналы : 6 каналов
Расположение каналов : Front: L C R, Side: L R, LFE
Частота : 48,0 КГц
Частота кадров : 31,250 кадров/сек (1536 SPF)
Битовая глубина : 16 бит
Метод сжатия : С потерями
Размер потока : 267 Мбайт (13%)
Заголовок : Original
Язык : English
ServiceKind/String : Complete Main
Default : Нет
Forced : Нет

Текст #1
Идентификатор : 4
Формат : UTF-8
Идентификатор кодека : S_TEXT/UTF8
Идентификатор кодека/Информация : UTF-8 Plain Text
Продолжительность : 1 ч. 17 м.
Битрейт : 1 бит/сек
ElementCount : 21
Размер потока : 833 байт (0%)
Заголовок : Forced
Язык : Russian
Default : Нет
Forced : Да

Текст #2
Идентификатор : 5
Формат : UTF-8
Идентификатор кодека : S_TEXT/UTF8
Идентификатор кодека/Информация : UTF-8 Plain Text
Продолжительность : 1 ч. 22 м.
Битрейт : 134 бит/сек
ElementCount : 1457
Размер потока : 81,8 Кбайт (0%)
Заголовок : Full
Язык : Russian
Default : Нет
Forced : Нет

Текст #3
Идентификатор : 6
Формат : UTF-8
Идентификатор кодека : S_TEXT/UTF8
Идентификатор кодека/Информация : UTF-8 Plain Text
Продолжительность : 1 ч. 20 м.
Битрейт : 92 бит/сек
ElementCount : 1516
Размер потока : 54,4 Кбайт (0%)
Заголовок : SRT
Язык : English
Default : Нет
Forced : Нет

Меню
00:00:00.000 : :Chapter 01
00:05:31.998 : :Chapter 02
00:14:59.690 : :Chapter 03
00:23:37.833 : :Chapter 04
00:30:46.886 : :Chapter 05
00:39:26.989 : :Chapter 06
00:49:39.768 : :Chapter 07
01:00:43.431 : :Chapter 08
01:10:10.456 : :Chapter 09
01:19:22.048 : :Chapter 10

piratbit.pw



Скачать Настоящие боссы через торрент http://pic1.kartinco.top/images/12/an74z.jpg Скачать фильм Настоящие боссы через торрент бесплантно в хорошем качестве Описание: Будучи лучшими подругами ещё с колледжа, Миа и Мел управляют небольшой косметической компанией, которую создали с нуля. Девушки ... 5 10 1
Info! Золотая раздача, скачанное не засчитывается.
Торрент: Зарегистрирован [2020-05-30 16:45] · скачан: 183 раз
Статус: √ проверено
Размер: 2.03 GB
Как cкачать? Как скачать Настоящие боссы через торрент | qTorrent

% Раздел Тема Автор DL S | L
Фильмы (Blu-ray, BD-Remux, HDDVD) [ 19.76 GB ] Настоящие боссы / Гламурные боссы / Like a Boss [2020 BDRemux 1080p] - ExKinoRay Mr. Grab Скачать
1 | 0

28-11-2019 20:33  

Отключить всю рекламу на сайте

    Дорогой пользователь! Огромная просьба, поблагодарите релизера, оцените раздачу и оставьте свои комментарий, если Вы скачали Настоящие боссы через торрент бесплатно! Внесите свою лепту в развитие PiratBit!
    Комментировать посты могут только пользователи прошедшие не сложную регистрацию
    Показать сообщения:    

    Настоящие боссы через торрент
    Скачать бесплатно Настоящие боссы
    Настоящие боссы скачать торрент
    Настоящие боссы смотреть онлайн
    Cкачать фильм Настоящие боссы бесплатно
    Настоящие боссы скачать торрент в хорошем качестве
    Настоящие боссы смотреть онлайн бесплатно в хорошем качестве


    Вы не можете начинать темы
    Вы не можете отвечать на сообщения
    Вы не можете редактировать свои сообщения
    Вы не можете удалять свои сообщения
    Вы не можете голосовать в опросах
    Вы не можете прикреплять файлы к сообщениям
    Вы можете скачивать файлы