Ссылка на приватное зеркало нашего сайта всего за 1$. Внимание количество ограничено!!!

2 сезон

iTunes

1 сезон

1

2 сезон

2 сезон

iTunes

1 сезон

RePack

30

Ultimate

ВАЖНО

ИГРА 18+

pack

RePack

MK11
pack

Забери бонус

RePack

jed

!!Акция!!

Alien_Rage

RePack

fifa19

RePack

Assassins Creed: Odyssey

RePack

NEED FOR SPEED™ PAYBACK

4 сезон

9 сезон

Бесстыжие 9 сезон

Все сериалы

все сериалы на PB.wtf

RePack

FAR CRY 5
  

Переводчики / Les traducteurs (Режис Руансар) [2019, триллер, WEB-DLRip-AVC] [Dub] [iTunes] piratbit.pw

Переводчики через торрент piratbit.pw

Раздают: 1 [ 0 KB/s ]
Размер: 1.4 GB | Добавлен: 5 мес. 26 д. назад | Торрент скачан:250 раз
Скачать  

30-05-2020 07:38 Переводчики Скачать торрент  


Переводчики / Les traducteurs



Страна: Франция, Бельгия
Жанр: триллер
Год выпуска: 2019
Продолжительность: 01:45:05
Перевод: Профессиональный (дублированный) iTunes
Субтитры: нет
Режиссер: Режис Руансар / Régis Roinsard
В ролях: Ламбер Вильсон, Ольга Куриленко, Риккардо Скамарчо, Сидсе Бабетт Кнудсен, Эдуардо Норьега, Алекс Лоутер, Анна Мария Штурм, Фредерик Шо, Мария Лейте, Манолис Мавроматакис
Описание: Девять переводчиков работают в секретном бункере над последней частью самого нашумевшего бестселлера. Их изолировали, чтобы не допустить утечки ожидаемой новинки в интернет. Но она все-таки произошла...


Качество видео: WEB-DLRip-AVC / WEB-DL 1080p
Формат видео: MKV
Видео: MPEG-4 AVC, 1012x420 (2.40:1), 23.976 fps, ~1490 kbps avg, 0.146 bit/pixel
Аудио: 48 kHz, AC3 Dolby Digital, 3/2 (L,C,R,l,r) + LFE ch, ~384 kbps avg

Код:

Complete name               : D:\Раздача\Переводчики (2019) WEB-DLRip-AVC_ivanes.mkv
Format                      : Matroska
Format version              : Version 2
File size                   : 1.40 GiB
Duration                    : 1 h 45 min
Overall bit rate            : 1 912 kb/s
Movie name                  : Переводчики (2019) WEB-DLRip-AVC_ivanes
Encoded date                : UTC 2020-05-29 12:20:10
Writing application         : mkvmerge v4.4.0 ('Die Wiederkehr') сборка от Jan  3 2011 21:40:45
Writing library             : libebml v1.0.0 + libmatroska v1.0.0
Cover                       : Yes
Attachments                 : cover.png

Video
ID                          : 1
Format                      : AVC
Format/Info                 : Advanced Video Codec
Format profile              : High@L4.1
Format settings             : CABAC / 11 Ref Frames
Format settings, CABAC      : Yes
Format settings, Reference  : 11 frames
Codec ID                    : V_MPEG4/ISO/AVC
Duration                    : 1 h 45 min
Bit rate                    : 1 490 kb/s
Width                       : 1 012 pixels
Height                      : 420 pixels
Display aspect ratio        : 2.40:1
Frame rate mode             : Constant
Frame rate                  : 23.976 (24000/1001) FPS
Color space                 : YUV
Chroma subsampling          : 4:2:0
Bit depth                   : 8 bits
Scan type                   : Progressive
Bits/(Pixel*Frame)          : 0.146
Stream size                 : 1.09 GiB (78%)
Title                       : Rip by ivanes
Writing library             : x264 core 160 r3000 33f9e14
Encoding settings           : cabac=1 / ref=11 / deblock=1:-3:-2 / analyse=0x3:0x113 / me=umh / subme=10 / psy=1 / psy_rd=1.00:0.00 / mixed_ref=1 / me_range=32 / chroma_me=1 / trellis=2 / 8x8dct=1 / cqm=0 / deadzone=21,11 / fast_pskip=0 / chroma_qp_offset=-2 / threads=12 / lookahead_threads=3 / sliced_threads=0 / nr=0 / decimate=1 / interlaced=0 / bluray_compat=0 / constrained_intra=0 / bframes=13 / b_pyramid=2 / b_adapt=2 / b_bias=0 / direct=1 / weightb=1 / open_gop=0 / weightp=2 / keyint=240 / keyint_min=23 / scenecut=40 / intra_refresh=0 / rc_lookahead=60 / rc=crf / mbtree=1 / crf=17.0 / qcomp=0.65 / qpmin=0 / qpmax=69 / qpstep=4 / vbv_maxrate=50000 / vbv_bufsize=62500 / crf_max=0.0 / nal_hrd=none / filler=0 / ip_ratio=1.40 / aq=1:1.00
Default                     : Yes
Forced                      : No
Statistics Tags Issue       : mkvmerge v29.0.0 ('Like It Or Not') 64-bit 2020-05-29 12:18:46 / mkvmerge v4.4.0 ('Die Wiederkehr') сборка от Jan  3 2011 21:40:45 2020-05-29 12:20:10
FromStats_BitRate           : 1526038
FromStats_Duration          : 01:45:05.299000000
FromStats_FrameCount        : 151176
FromStats_StreamSize        : 1202765746

Audio
ID                          : 2
Format                      : AC-3
Format/Info                 : Audio Coding 3
Commercial name             : Dolby Digital
Codec ID                    : A_AC3
Duration                    : 1 h 45 min
Bit rate mode               : Constant
Bit rate                    : 384 kb/s
Channel(s)                  : 6 channels
Channel layout              : L R C LFE Ls Rs
Sampling rate               : 48.0 kHz
Frame rate                  : 31.250 FPS (1536 SPF)
Compression mode            : Lossy
Stream size                 : 289 MiB (20%)
Title                       : iTunes
Language                    : Russian
Service kind                : Complete Main
Default                     : Yes
Forced                      : No

скриншот  скриншот  скриншот  
piratbit.pw



Скачать Переводчики через торрент https://i112.fastpic.ru/big/2020/0529/28/ee2eb3b05a0a03f224950c46e8745728.png Скачать фильм Переводчики через торрент бесплантно в хорошем качестве Описание: Девять переводчиков работают в секретном бункере над последней частью самого нашумевшего бестселлера. Их изолировали, чтобы не ... 10 10 10
Торрент: Зарегистрирован [2020-05-30 07:38] · скачан: 250 раз
Статус: √ проверено
Размер: 1.4 GB
Как cкачать? Как скачать Переводчики через торрент | qTorrent

% Раздел Тема Автор DL S | L
Фильмы [HD 720p, 1080p] (Хороший звук DUB, MVO) [ 4.24 GB ] Переводчики / Les traducteurs [2019 BDRip 720p] bober100 Скачать
9 | 0
Фильмы [HD 720p, 1080p] (Хороший звук DUB, MVO) [ 8.27 GB ] Переводчики / Les traducteurs [2019 BDRip 1080p] bober100 Скачать
9 | 0
Фильмы 2019-2020 [DVDrip, WEB-DLRip, HDrip] (DUB, MVO) [ 1.41 GB ] Переводчики / Les traducteurs [2019 BDRip] - Twi7ter Скачать
106 | 2
Фильмы (Blu-ray, BD-Remux, HDDVD) [ 24.82 GB ] Переводчики / Les traducteurs [2019 BD Remux 1080p] bober100 Скачать
3 | 0
Фильмы 2019-2020 [DVDrip, WEB-DLRip, HDrip] (DUB, MVO) [ 746 MB ] Переводчики / Les traducteurs [2019 HDRip] bober100 Скачать
2 | 0
Фильмы (WEB-DL 720p, 1080p) [ 3.64 GB ] Переводчики / Les traducteurs [2019 WEB-DL 1080p] bober100 Скачать
6 | 0
Фильмы 2019-2020 [DVDrip, WEB-DLRip, HDrip] (DUB, MVO) [ 1.46 GB ] Переводчики / Les traducteurs [2019 BDRip] bober100 Скачать
5 | 0

28-11-2019 20:33  

Отключить всю рекламу на сайте

    Дорогой пользователь! Огромная просьба, поблагодарите релизера, оцените раздачу и оставьте свои комментарий, если Вы скачали Переводчики через торрент бесплатно! Внесите свою лепту в развитие PiratBit!
    Комментировать посты могут только пользователи прошедшие не сложную регистрацию
    Показать сообщения:    

    Переводчики через торрент
    Скачать бесплатно Переводчики
    Переводчики скачать торрент
    Переводчики смотреть онлайн
    Cкачать фильм Переводчики бесплатно
    Переводчики скачать торрент в хорошем качестве
    Переводчики смотреть онлайн бесплатно в хорошем качестве


    Вы не можете начинать темы
    Вы не можете отвечать на сообщения
    Вы не можете редактировать свои сообщения
    Вы не можете удалять свои сообщения
    Вы не можете голосовать в опросах
    Вы не можете прикреплять файлы к сообщениям
    Вы можете скачивать файлы