Marvel's Avengers Deluxe Edition (супер цена) 159р. Внимание количество ограничено!!!

2 сезон

iTunes

iTunes

1

iTunes

iTunes

iTunes

WEBRip

iTunes

30
pack

Новость дня

ВАЖНО

!!Акция!!

Alien_RageХит недели

RePack

Horizon Zero Dawn

ИГРА 18+

pack

RePack

jed

!!Акция!!

Alien_Rage

RePack

fifa19

RePack

Assassins Creed: Odyssey

RePack

NEED FOR SPEED™ PAYBACK

4 сезон

9 сезон

Бесстыжие 9 сезон

Все сериалы

все сериалы на PB.wtf

RePack

FAR CRY 5
  

Где ты, Багира? (Владимир Левин) [1977 г., семейный, детский, DVDRip-AVC] piratbit.pw

Где ты, Багира? через торрент piratbit.pw

Раздают: 1 [ 0 KB/s ]
Размер: 1.5 GB | Добавлен: 3 мес. 20 д. назад | Торрент скачан:3 раза
Скачать  

29-05-2020 17:53 Где ты, Багира? Скачать торрент  

Где ты, Багира?

Год выпуска: 1977
Страна: СССР | Одесская киностудия
Жанр: семейный, детский
Продолжительность: 01:14:20
Перевод: не требуется

Режиссер: Владимир Левин

В ролях: Анна Колбасова, Анна Васильева, Павел Силаков, Михаил Гаркавенко, Фёдор Резвой, Владимир Смагин, Иван Рыжов, Валентина Хмара, Алексей Ванин, Виктор Володин, Юозас Лигутас, Лидия Луговцева, Андрей Рахманов, Анна Сидоркина, Николай Полищук, Тамара Трач

Описание: Можно ли любить чужую собаку? Для Тани этот вопрос не стоял, Багира просто стала частью ее жизни. Даже суровый хозяин собаки пошел Тане на встречу и временно отдал ее Багиру на воспитание. К сожалению, только для того, чтобы потом повыгоднее продать собаку другим людям. Пройдут месяцы после разлуки, и Таня случайно увидит по телевизору необыкновенный репортаж о новой жизни своей любимицы.

rating
Рейтинг 12+ - зрителям, достигшим 12 лет

Файл
Формат: MKV
Качество: DVDRip-AVC (DVD5)
Видео: MPEG-4 AVC, 682->726x572, 25.000 fps, 2637 kbps, 0.270 bit/pixel
Аудио: Русский, AC3, 2 chnls, 256 kbps | Оригинал
x264 [info]: frame I:595 Avg QP:17.94 size: 48462
x264 [info]: frame P:30534 Avg QP:19.52 size: 24973
x264 [info]: frame B:80375 Avg QP:21.83 size: 8449
x264 [info]: consecutive B-frames: 4.8% 6.6% 12.6% 29.3% 18.3% 24.5% 2.8% 0.7% 0.2% 0.1% 0.0%
Format : Matroska
Format version : Version 4
File size : 1.50 GiB
Duration : 1 h 14 min
Overall bit rate : 2 896 kb/s
Movie name : Где ты, Багира? (1977) - Rip by -{am}-
Encoded date : UTC 2020-05-19 18:43:16
Writing application : mkvmerge v7.2.0 ('On Every Street') 32bit built on Sep 13 2014 15:42:11
Writing library : libebml v1.3.0 + libmatroska v1.4.1
Attachments : poster.png

Video
ID : 1
Format : AVC
Format/Info : Advanced Video Codec
Format profile : High@L4.1
Format settings : CABAC / 16 Ref Frames
Format settings, CABAC : Yes
Format settings, Reference : 16 frames
Codec ID : V_MPEG4/ISO/AVC
Duration : 1 h 14 min
Bit rate : 2 637 kb/s
Width : 682 pixels
Height : 572 pixels
Display aspect ratio : 1.271
Original display aspect rat : 1.272
Frame rate mode : Constant
Frame rate : 25.000 FPS
Color space : YUV
Chroma subsampling : 4:2:0
Bit depth : 8 bits
Scan type : Progressive
Bits/(Pixel*Frame) : 0.270
Stream size : 1.37 GiB (91%)
Title : Gde.ti.Bagira.1977.{am}.726.Rus
Writing library : x264 core 159 r2991+49 524a90c t_mod_New [0-bit@all X86_64]
Encoding settings : cabac=1 / ref=16 / deblock=1:-3:0 / analyse=0x3:0x113 / me=umh / subme=11 / psy=1 / fade_compensate=0.00 / psy_rd=1.00:0.20 / mixed_ref=1 / me_range=64 / chroma_me=1 / trellis=2 / 8x8dct=1 / cqm=2 / deadzone=21,11 / fast_pskip=0 / chroma_qp_offset=-5 / threads=18 / lookahead_threads=4 / sliced_threads=0 / nr=0 / decimate=0 / interlaced=0 / bluray_compat=0 / constrained_intra=0 / fgo=0 / bframes=10 / b_pyramid=2 / b_adapt=2 / b_bias=0 / direct=3 / weightb=1 / open_gop=0 / weightp=2 / keyint=250 / keyint_min=25 / scenecut=40 / intra_refresh=0 / rc_lookahead=40 / rc=crf / mbtree=0 / crf=18.0000 / qcomp=0.60 / qpmin=0:0:0 / qpmax=69:69:69 / qpstep=4 / vbv_maxrate=50000 / vbv_bufsize=62500 / crf_max=30.0 / nal_hrd=none / filler=0 / ip_ratio=1.40 / pb_ratio=1.30 / aq=3:1.00 / aq-sensitivity=10.00 / aq-factor=1.00:1.00:1.00 / aq2=0 / aq3=0
Language : Russian
Default : Yes
Forced : No

Audio
ID : 2
Format : AC-3
Format/Info : Audio Coding 3
Commercial name : Dolby Digital
Codec ID : A_AC3
Duration : 1 h 14 min
Bit rate mode : Constant
Bit rate : 256 kb/s
Channel(s) : 2 channels
Channel layout : L R
Sampling rate : 48.0 kHz
Frame rate : 31.250 FPS (1536 SPF)
Compression mode : Lossy
Stream size : 136 MiB (9%)
Title : Original
Language : Russian
Service kind : Complete Main
Default : Yes
Forced : No

Menu
00:00:00.000 : :Глава 0
00:13:10.080 : :Глава 1
00:28:10.080 : :Глава 2
00:43:10.080 : :Глава 3
00:58:10.080 : :Глава 4
01:12:20.160 : :Глава 5
piratbit.pw



Скачать Где ты, Багира? через торрент http://lostpic.net/images/2020/05/29/d1b5a3ff9942b2783f42f978e715ca87.th.png Скачать фильм Где ты, Багира? через торрент бесплантно в хорошем качестве Описание: Можно ли любить чужую собаку? Для Тани этот вопрос не стоял, Багира просто стала частью ее жизни. Даже суровый хозяин собаки ... 10 10 2
Info! Золотая раздача, скачанное не засчитывается.
Торрент: Зарегистрирован [2020-05-29 17:53] · скачан: 3 раз
Статус: √ проверено
Размер: 1.5 GB
Как cкачать? Как скачать Где ты, Багира? через торрент | qTorrent

28-11-2019 20:33  

Отключить всю рекламу на сайте

    Дорогой пользователь! Огромная просьба, поблагодарите релизера, оцените раздачу и оставьте свои комментарий, если Вы скачали Где ты, Багира? через торрент бесплатно! Внесите свою лепту в развитие PiratBit!
    Комментировать посты могут только пользователи прошедшие не сложную регистрацию
    Показать сообщения:    

    Где ты, Багира? через торрент
    Скачать бесплатно Где ты, Багира?
    Где ты, Багира? скачать торрент
    Где ты, Багира? смотреть онлайн
    Cкачать фильм Где ты, Багира? бесплатно
    Где ты, Багира? скачать торрент в хорошем качестве
    Где ты, Багира? смотреть онлайн бесплатно в хорошем качестве


    Вы не можете начинать темы
    Вы не можете отвечать на сообщения
    Вы не можете редактировать свои сообщения
    Вы не можете удалять свои сообщения
    Вы не можете голосовать в опросах
    Вы не можете прикреплять файлы к сообщениям
    Вы можете скачивать файлы