Marvel's Avengers Deluxe Edition (супер цена) 159р. Внимание количество ограничено!!!

2 сезон

iTunes

iTunes

1

iTunes

iTunes

iTunes

WEBRip

iTunes

30
pack

Новость дня

ВАЖНО

!!Акция!!

Alien_RageХит недели

RePack

Horizon Zero Dawn

ИГРА 18+

pack

RePack

jed

!!Акция!!

Alien_Rage

RePack

fifa19

RePack

Assassins Creed: Odyssey

RePack

NEED FOR SPEED™ PAYBACK

4 сезон

9 сезон

Бесстыжие 9 сезон

Все сериалы

все сериалы на PB.wtf

RePack

FAR CRY 5
  

Скуби-ду / Scoob! (Тони Червоне) [2020, Мультфильм, комедия, детектив, приключения, семейный, UHD WEB-DL 2160p, (SDR)] MVO [HDRezka Studio] piratbit.pw

Скуби-ду через торрент piratbit.pw

Раздают: 2 [ 0 KB/s ]
Размер: 17 GB | Добавлен: 3 мес. 21 д. назад | Торрент скачан:41 раз
Скачать  

29-05-2020 05:02 Скуби-ду Скачать торрент  

Скуби-ду | Scoob!
Год выпуска: 2020
Страна: США
Выпущено: Warner Bros., Warner Animation Group, Atlas Entertainment
Жанр: Мультфильм, комедия, детектив, приключения, семейный
Продолжительность: 01:33:42
Перевод: Профессиональный (многоголосый) | HDRezka Studio
Субтитры: English (SDH, Full)

Режиссер: Тони Червоне

rating

В ролях: Фрэнк Уэлкер, Уилл Форте, Иэн Армитедж, Марк Уолберг, Джейсон Айзекс, Джина Родригес, Зак Эфрон, Аманда Сайфред, Кирси Клемонс, Кен Жонг

Описание: Скуби-Ду возвращается на большие экраны! Новый полнометражный мультфильм о знаменитом доге и команде друзей-детективов, которые разоблачают «сверхъестественные» явления, служащие ширмой для чьих-то преступных планов.

Качество: UHD WEB-DL 2160p
Формат: MKV

Видео: MPEG-H HEVC SDR Video, 24.7 Мбит/с, 3840x1608, 23.976 кадр/с, 10 Бит
Аудио#1 Russian: 48 kHz, AC-3, 3/2 (L,C,R,l,r) + LFE ch, ~640 kbps avg |Многоголосый закадровый, HDRezka Studio|
Аудио#2 English: 48 kHz, E-AC-3, 3/2 (L,C,R,l,r) + LFE ch, ~640 kbps avg
скриншот  скриншот  скриншот  скриншот  скриншот  

Общее
Уникальный идентификатор : 181170192145404049840774388637542422908 (0x884C1C1C65F10B8893B552DF4390997C)
Полное имя : D:\Передел\Scoob.2020.2160p.WEB-DLRip.x265.10bit.SDR.Master5.mkv
Формат : Matroska
Версия формата : Version 4
Размер файла : 17,0 Гбайт
Продолжительность : 1 ч. 33 м.
Общий поток : 26,0 Мбит/сек
Название фильма : Scoob.2020.2160p.WEB-DLRip.x265.10bit.SDR.Master5
Дата кодирования : UTC 2020-05-28 21:47:04
Программа кодирования : mkvmerge v7.9.0 ('Birds') 64bit
Библиотека кодирования : libebml v1.3.1 + libmatroska v1.4.2

Видео
Идентификатор : 1
Формат : HEVC
Формат/Информация : High Efficiency Video Coding
Профиль формата : Main 10@L5.1@High
Идентификатор кодека : V_MPEGH/ISO/HEVC
Продолжительность : 1 ч. 33 м.
Битрейт : 24,7 Мбит/сек
Ширина : 3840 пикселей
Высота : 1608 пикселей
Соотношение сторон : 2,40:1
Режим частоты кадров : Постоянный
Частота кадров : 23,976 (24000/1001) кадра/сек
Цветовое пространство : YUV
Субдискретизация насыщенности : 4:2:0
Битовая глубина : 10 бит
Бит/(Пиксели*Кадры) : 0.167
Размер потока : 16,2 Гбайт (95%)
Заголовок : Scoob.2020.2160p.WEB-DLRip.x265.10bit.SDR.Master5
Библиотека кодирования : x265 3.3+31-d5695e28999e:[Windows][GCC 6.3.0][64 bit] 10bit
Настройки программы : cpuid=1176575 / frame-threads=5 / numa-pools=36 / wpp / pmode / no-pme / no-psnr / no-ssim / log-level=2 / input-csp=1 / input-res=3840x1608 / interlace=0 / total-frames=0 / level-idc=51 / high-tier=1 / uhd-bd=0 / ref=4 / no-allow-non-conformance / repeat-headers / annexb / aud / hrd / info / hash=0 / no-temporal-layers / no-open-gop / min-keyint=23 / keyint=250 / gop-lookahead=0 / bframes=4 / b-adapt=2 / b-pyramid / bframe-bias=0 / rc-lookahead=25 / lookahead-slices=4 / scenecut=40 / hist-scenecut=0 / radl=0 / no-splice / no-intra-refresh / ctu=64 / min-cu-size=8 / rect / no-amp / max-tu-size=32 / tu-inter-depth=1 / tu-intra-depth=1 / limit-tu=0 / rdoq-level=2 / dynamic-rd=0.00 / no-ssim-rd / signhide / no-tskip / nr-intra=0 / nr-inter=0 / no-constrained-intra / strong-intra-smoothing / max-merge=3 / limit-refs=0 / limit-modes / me=3 / subme=3 / merange=57 / temporal-mvp / no-frame-dup / no-hme / weightp / no-weightb / no-analyze-src-pics / deblock=-3:-3 / no-sao / no-sao-non-deblock / rd=4 / selective-sao=0 / no-early-skip / rskip / no-fast-intra / no-tskip-fast / no-cu-lossless / no-b-intra / no-splitrd-skip / rdpenalty=0 / psy-rd=2.00 / psy-rdoq=1.00 / no-rd-refine / no-lossless / cbqpoffs=0 / crqpoffs=0 / rc=crf / crf=15.5 / qcomp=0.60 / qpstep=4 / stats-write=0 / stats-read=0 / vbv-maxrate=160000 / vbv-bufsize=160000 / vbv-init=0.9 / crf-max=0.0 / crf-min=0.0 / ipratio=1.40 / pbratio=1.30 / aq-mode=4 / aq-strength=1.00 / no-cutree / zone-count=0 / no-strict-cbr / qg-size=32 / no-rc-grain / qpmax=69 / qpmin=0 / no-const-vbv / sar=1 / overscan=0 / videoformat=5 / range=0 / colorprim=2 / transfer=2 / colormatrix=2 / chromaloc=0 / display-window=0 / cll=0,0 / min-luma=0 / max-luma=1023 / log2-max-poc-lsb=8 / vui-timing-info / vui-hrd-info / slices=1 / no-opt-qp-pps / no-opt-ref-list-length-pps / no-multi-pass-opt-rps / scenecut-bias=0.05 / hist-threshold=0.01 / no-opt-cu-delta-qp / no-aq-motion / no-hdr10 / no-hdr10-opt / no-dhdr10-opt / no-idr-recovery-sei / analysis-reuse-level=0 / analysis-save-reuse-level=0 / analysis-load-reuse-level=0 / scale-factor=0 / refine-intra=0 / refine-inter=0 / refine-mv=1 / refine-ctu-distortion=0 / no-limit-sao / ctu-info=0 / no-lowpass-dct / refine-analysis-type=0 / copy-pic=1 / max-ausize-factor=1.0 / no-dynamic-refine / no-single-sei / no-hevc-aq / no-svt / no-field / qp-adaptation-range=1.00 / no-scenecut-aware-qpconformance-window-offsets / right=0 / bottom=0 / decoder-max-rate=0
Язык : English
Default : Да
Forced : Нет

Аудио #1
Идентификатор : 2
Формат : AC-3
Формат/Информация : Audio Coding 3
Коммерческое название : Dolby Digital
Идентификатор кодека : A_AC3
Продолжительность : 1 ч. 33 м.
Вид битрейта : Постоянный
Битрейт : 640 Кбит/сек
Каналы : 6 каналов
Channel layout : L R C LFE Ls Rs
Частота : 48,0 КГц
Частота кадров : 31,250 кадров/сек (1536 SPF)
Битовая глубина : 16 бит
Метод сжатия : С потерями
Размер потока : 429 Мбайт (2%)
Заголовок : HDRezka Studio
Язык : Russian
ServiceKind/String : Complete Main
Default : Да
Forced : Нет

Аудио #2
Идентификатор : 3
Формат : E-AC-3
Формат/Информация : Enhanced AC-3
Коммерческое название : Dolby Digital Plus
Идентификатор кодека : A_EAC3
Продолжительность : 1 ч. 33 м.
Вид битрейта : Постоянный
Битрейт : 640 Кбит/сек
Каналы : 6 каналов
Channel layout : L R C LFE Ls Rs
Частота : 48,0 КГц
Частота кадров : 31,250 кадров/сек (1536 SPF)
Метод сжатия : С потерями
Размер потока : 429 Мбайт (2%)
Язык : English
ServiceKind/String : Complete Main
Default : Нет
Forced : Нет

Текст #1
Идентификатор : 4
Формат : UTF-8
Идентификатор кодека : S_TEXT/UTF8
Идентификатор кодека/Информация : UTF-8 Plain Text
Продолжительность : 1 ч. 26 м.
Битрейт : 66 бит/сек
ElementCount : 1549
Размер потока : 42,1 Кбайт (0%)
Язык : English
Default : Нет
Forced : Нет

Текст #2
Идентификатор : 5
Формат : UTF-8
Идентификатор кодека : S_TEXT/UTF8
Идентификатор кодека/Информация : UTF-8 Plain Text
Продолжительность : 1 ч. 33 м.
Битрейт : 75 бит/сек
ElementCount : 1882
Размер потока : 51,8 Кбайт (0%)
Заголовок : SDH
Язык : English
Default : Нет
Forced : Нет

Меню
00:00:00.000 : en:Scene 1
00:00:20.000 : en:First Meet
00:05:19.000 : en:A Special Gift
00:06:50.000 : en:Halloween
00:11:46.000 : en:Montage
00:12:39.000 : en:Investor
00:15:14.000 : en:Bowling
00:18:51.000 : en:The Falcon Fury
00:26:11.000 : en:Adventure Calling
00:27:22.000 : en:Guilt
00:30:07.000 : en:Dastardly Meltdown
00:31:57.000 : en:DM Plans
00:33:52.000 : en:Lineage
00:34:39.000 : en:Romania
00:42:27.000 : en:New Clothes
00:44:57.000 : en:Forgotten Lunch
00:48:26.000 : en:Ego
00:49:00.000 : en:The Key
00:55:11.000 : en:Choice
00:57:53.000 : en:Prehistoric Help
01:00:03.000 : en:Well Timed Fred
01:01:21.000 : en:Arena Showdown
01:05:40.000 : en:Heroic Speech
01:07:38.000 : en:Bad Bargain
01:11:06.000 : en:Reunited
01:13:18.000 : en:Final Fight
01:19:33.000 : en:Locked
01:25:33.000 : en:Grand Opening
01:27:15.000 : en:End Credits

piratbit.pw



Скачать Скуби-ду через торрент https://d.radikal.ru/d20/2005/a7/89992b1e91e4.jpg Скачать фильм Скуби-ду через торрент бесплантно в хорошем качестве Описание: Скуби-Ду возвращается на большие экраны! Новый полнометражный мультфильм о знаменитом доге и команде друзей-детективов, которые ... 10 10 5
Info! Золотая раздача, скачанное не засчитывается.
Торрент: Зарегистрирован [2020-05-29 05:02] · скачан: 41 раз
Статус: √ проверено
Размер: 17 GB
Как cкачать? Как скачать Скуби-ду через торрент | qTorrent

% Раздел Тема Автор DL S | L
Иностранные мультфильмы [ 1.46 GB ] Скуби-ду / Scoob! [2020 Мультфильм BDRip] MVO [HDRezka Studio] bober100 Скачать
8 | 0
Зарубежные Мультфильмы (WEB-DL 720p, 1080p) [ 5.8 GB ] Скуби-ду / Scoob! [2020 Мультфильм WEB-DL 1080p] MVO [HDRezka Studio] bober100 Скачать
106 | 7
T Зарубежные Мультфильмы (WEB-DL 720p, 1080p) [ 2.94 GB ] Скуби-Ду и Бэтмен: Храбрый и смелый / Scooby-Doo & Batman: the Brave and the Bold [2018 мультфильм WEB-DL 1080p] MVO [«КОЛОБОК»] bober100 Скачать
1 | 0
T Иностранные мультфильмы [ 1.37 GB ] Лего Скуби-Ду: Улётный пляж / Lego Scooby-Doo! Blowout Beach Bash [2017 Мультфильм BDRip] MVO - ExKinoRay Enigma2010 Скачать
1 | 0
T Иностранные мультфильмы [ 1.37 GB ] Скуби-ду! На диком западе / Scooby-Doo! Shaggy's Showdown [2017 Мультфильм WEB-DLRip] MVO - ExKinoRay Enigma2010 Скачать
2 | 0
Зарубежные Мультфильмы (WEB-DL 720p, 1080p) [ 3.1 GB ] Скуби-Ду! Лунный безумный монстр / Scooby-Doo! Moon Monster Madness [2015 мультфильм WEB-DL 1080p] MVO + ENG GEKADOL Скачать
1 | 0
Иностранные мультфильмы [ 1.37 GB ] Скуби-Ду! Лунный безумный монстр / Scooby-Doo! Moon Monster Madness [2015 мультфильм WEB-DLRip] MVO + ENG GEKADOL Скачать
1 | 0

28-11-2019 20:33  

Отключить всю рекламу на сайте

    Дорогой пользователь! Огромная просьба, поблагодарите релизера, оцените раздачу и оставьте свои комментарий, если Вы скачали Скуби-ду через торрент бесплатно! Внесите свою лепту в развитие PiratBit!
    Комментировать посты могут только пользователи прошедшие не сложную регистрацию
    Показать сообщения:    

    Скуби-ду через торрент
    Скачать бесплатно Скуби-ду
    Скуби-ду скачать торрент
    Скуби-ду смотреть онлайн
    Cкачать фильм Скуби-ду бесплатно
    Скуби-ду скачать торрент в хорошем качестве
    Скуби-ду смотреть онлайн бесплатно в хорошем качестве


    Вы не можете начинать темы
    Вы не можете отвечать на сообщения
    Вы не можете редактировать свои сообщения
    Вы не можете удалять свои сообщения
    Вы не можете голосовать в опросах
    Вы не можете прикреплять файлы к сообщениям
    Вы можете скачивать файлы