1 сезон

1 сезон

iTunes

1

КиноПоиск HD

Кинопоиск HD

iTunes

13

1 сезон

RePack

30

Новинка

ВАЖНО

ИГРА 18+

pack

RePack

MK11
pack

Легкие деньги

RePack

jed

RePack

fifa19

RePack

RDR2

RePack

NEED FOR SPEED™ PAYBACK

4 сезон

9 сезон

Бесстыжие 9 сезон

Все сериалы

все сериалы на PB.wtf

RePack

FAR CRY 5
  
Magnet ссылка

Лют Матен и белая ракушка / Lutt Matten und die weisse Muschel (Херрманн Цшохе) [1964 г., приключения, детский, семейный, DVDRip-AVC] AVO [Муравский] piratbit.pw

Лют Матен и белая ракушка через торрент piratbit.pw

Размер: 1.63 GB | Добавлен: 10 мес. назад | Торрент скачан:3 раза
Скачать  

27-05-2020 17:36 Лют Матен и белая ракушка Скачать торрент  

Лют Матен и белая ракушка / Lutt Matten und die weisse Muschel

Год выпуска: 1964
Страна: ГДР | Deutsche Film (DEFA) (Studio fur Spielfilme: DEFA Gruppe 60)
Жанр: приключения, детский, семейный
Продолжительность: 01:16:26
Перевод: Авторский (одноголосый закадровый) Юрий Муравский 2018, организация перевода Minhers76

Режиссер: Херрманн Цшохе

В ролях: Лютс Бассерман, Эрик С. Кляйн, Хоаким Краузе, Хейке Ланж, Йоханна Клас, Ганс Хюбнер

Описание: По одноимённой детской книге Бенно Плудра. Сын рыбака Лют Матен живет на берегу Балтийского моря. Его заветная мечта - самостоятельно выйти в море, чтобы наловить угрей.

rating

Файл
Формат: MKV
Качество: DVDRip-AVC (DVD5)
Видео: MPEG-4 AVC, 718->764x574 (4:3), 25.000 fps, 2860 kbps, 0.278 bit/pixel
Аудио: Русский, AC3, 2 chnls, 192 kbps | AVO, Юрий Муравский
x264 [info]: frame I:633 Avg QP:17.35 size: 55845
x264 [info]: frame P:27870 Avg QP:19.29 size: 27799
x264 [info]: frame B:86147 Avg QP:21.29 size: 9630
x264 [info]: consecutive B-frames: 2.5% 4.1% 8.8% 32.1% 21.7% 26.2% 3.1% 0.9% 0.3% 0.2% 0.1%
Format : Matroska
Format version : Version 4
File size : 1.63 GiB
Duration : 1 h 16 min
Overall bit rate mode : Variable
Overall bit rate : 3 055 kb/s
Movie name : Lutt Matten und die weisse Muschel (1964) - Rip by -{am}-
Encoded date : UTC 2020-05-26 20:49:40
Writing application : mkvmerge v7.2.0 ('On Every Street') 32bit built on Sep 13 2014 15:42:11
Writing library : libebml v1.3.0 + libmatroska v1.4.1
Attachments : poster.jpg

Video
ID : 1
Format : AVC
Format/Info : Advanced Video Codec
Format profile : High@L4
Format settings : CABAC / 16 Ref Frames
Format settings, CABAC : Yes
Format settings, Reference : 16 frames
Codec ID : V_MPEG4/ISO/AVC
Duration : 1 h 16 min
Bit rate mode : Variable
Bit rate : 2 860 kb/s
Maximum bit rate : 25.0 Mb/s
Width : 718 pixels
Height : 574 pixels
Display aspect ratio : 4:3
Original display aspect rat : 4:3
Frame rate mode : Constant
Frame rate : 25.000 FPS
Color space : YUV
Chroma subsampling : 4:2:0
Bit depth : 8 bits
Scan type : Progressive
Bits/(Pixel*Frame) : 0.278
Stream size : 1.53 GiB (94%)
Title : Lutt.Matten.und.die.weisse.Muschel.1964.{am}.764.Rus
Writing library : x264 core 160 r3000+53 e3e4c3e t_mod_New [(8 & 10)-bit@all X86_64]
Encoding settings : cabac=1 / ref=16 / deblock=1:-3:0 / analyse=0x3:0x113 / me=umh / subme=11 / psy=1 / fade_compensate=0.00 / psy_rd=1.00:0.20 / mixed_ref=1 / me_range=64 / chroma_me=1 / trellis=2 / 8x8dct=1 / cqm=2 / deadzone=21,11 / fast_pskip=0 / chroma_qp_offset=-5 / threads=18 / lookahead_threads=4 / sliced_threads=0 / nr=0 / decimate=0 / interlaced=0 / bluray_compat=0 / constrained_intra=0 / fgo=0 / bframes=10 / b_pyramid=2 / b_adapt=2 / b_bias=0 / direct=3 / weightb=1 / open_gop=0 / weightp=2 / keyint=250 / keyint_min=25 / scenecut=40 / intra_refresh=0 / rc_lookahead=60 / rc=crf / mbtree=0 / crf=18.0000 / qcomp=0.60 / qpmin=0:0:0 / qpmax=69:69:69 / qpstep=4 / vbv_maxrate=25000 / vbv_bufsize=31250 / crf_max=27.9 / nal_hrd=vbr / filler=0 / ip_ratio=1.40 / pb_ratio=1.30 / aq=3:1.00 / aq-sensitivity=10.00 / aq-factor=1.00:1.00:1.00 / aq2=0 / aq3=0
Language : German
Default : Yes
Forced : No
Color range : Limited
Color primaries : BT.601 PAL
Transfer characteristics : BT.470 System B/G
Matrix coefficients : BT.470 System B/G

Audio
ID : 2
Format : AC-3
Format/Info : Audio Coding 3
Commercial name : Dolby Digital
Codec ID : A_AC3
Duration : 1 h 16 min
Bit rate mode : Constant
Bit rate : 192 kb/s
Channel(s) : 2 channels
Channel layout : L R
Sampling rate : 48.0 kHz
Frame rate : 31.250 FPS (1536 SPF)
Compression mode : Lossy
Stream size : 105 MiB (6%)
Title : AVO, Юрий Муравский
Language : Russian
Service kind : Complete Main
Default : Yes
Forced : No

Menu
00:00:00.000 : :Глава 0
00:02:00.480 : :Глава 1
00:16:10.000 : :Глава 2
00:23:16.680 : :Глава 3
00:31:13.320 : :Глава 4
00:40:40.840 : :Глава 5
00:52:33.160 : :Глава 6
01:08:00.560 : :Глава 7
01:14:32.280 : :Глава 8
скриншот   скриншот   скриншот   скриншот  

скриншот   скриншот   скриншот   скриншот  

скриншот   скриншот   скриншот   скриншот  

скриншот   скриншот   скриншот   скриншот  

скриншот   скриншот   скриншот   скриншот  
piratbit.pw



Скачать Лют Матен и белая ракушка через торрент https://img11.lostpic.net/2020/05/27/cfbbcc46af671f72146c4d5bc13b0f8a.th.jpg Скачать фильм Лют Матен и белая ракушка через торрент бесплантно в хорошем качестве Описание: По одноимённой детской книге Бенно Плудра. Сын рыбака Лют Матен живет на берегу Балтийского моря. Его заветная мечта - ... 5 10 1
Info! Золотая раздача, скачанное не засчитывается.
Торрент: Зарегистрирован [2020-05-27 17:36] · скачан: 3 раз
Статус: √ проверено
Размер: 1.63 GB
Как cкачать? Как скачать Лют Матен и белая ракушка через торрент | UTorrent

28-11-2019 20:33  

Отключить всю рекламу на сайте

    Дорогой пользователь! Огромная просьба, поблагодарите релизера, оцените раздачу и оставьте свои комментарий, если Вы скачали Лют Матен и белая ракушка через торрент бесплатно! Внесите свою лепту в развитие PiratBit!
    Комментировать посты могут только пользователи прошедшие не сложную регистрацию
    Показать сообщения:    

    Лют Матен и белая ракушка через торрент
    Скачать бесплатно Лют Матен и белая ракушка
    Лют Матен и белая ракушка скачать торрент
    Лют Матен и белая ракушка смотреть онлайн
    Cкачать фильм Лют Матен и белая ракушка бесплатно
    Лют Матен и белая ракушка скачать торрент в хорошем качестве
    Лют Матен и белая ракушка смотреть онлайн бесплатно в хорошем качестве


    Вы не можете начинать темы
    Вы не можете отвечать на сообщения
    Вы не можете редактировать свои сообщения
    Вы не можете удалять свои сообщения
    Вы не можете голосовать в опросах
    Вы не можете прикреплять файлы к сообщениям
    Вы можете скачивать файлы