1 сезон

1 сезон

iTunes

1

КиноПоиск HD

Кинопоиск HD

iTunes

13

1 сезон

RePack

30

Ultimate

ВАЖНО

ИГРА 18+

pack

RePack

MK11
pack

Легкие деньги

RePack

jed

RePack

fifa19

RePack

RDR2

RePack

NEED FOR SPEED™ PAYBACK

4 сезон

9 сезон

Бесстыжие 9 сезон

Все сериалы

все сериалы на PB.wtf

RePack

FAR CRY 5
  
Magnet ссылка

Последние и первые люди / Last and First Men (Йохан Йоханнссон) [2020, Фантастика, BDRip 1080p] AVO [А.Важенин [BadBajo] piratbit.pw

Последние и первые люди через торрент piratbit.pw

Размер: 7.39 GB | Добавлен: 10 мес. назад | Торрент скачан:35 раз
Скачать  

25-05-2020 14:26 Последние и первые люди Скачать торрент  

Последние и первые люди | Last and First Men
Год выпуска: 2020
Страна: Исландия
Студия: Zik Zak Kvikmyndir
Жанр: Фантастика
Продолжительность: 01:10:45
Перевод: Авторский (одноголосый) |
Субтитры: Английские (отключаемые)

Режиссер: Йохан Йоханнссон

rating


В ролях: Тильда Суинтон

Описание: В данном псевдодокументальном фильме рассказывается история о людях, которые узнав о приближающейся гибели Земли, нашли пристанище на Нептуне. Вы познакомитесь с архитектурой нового поколения людей, узнаете об их внешнем виде и укладе жизни.

Качество: BDRip 1080p
Формат: MKV

Видео: MPEG-4 AVC, 1756x1068, ~11 500 Kbps, 24 FPS
Аудио#1: Русский: DTS, 6 ch, 1 509 Kbps (BadBajo)
Аудио#2: Русский: AC3, 6 ch, 448 Kbps (BadBajo)
Аудио#3: Английский: DTS, 6 ch, 1 509 Kbps
скриншот  скриншот  скриншот  скриншот  скриншот  

Общее
Уникальный идентификатор : 76752186250511003599414766962670059226 (0x39BDEEF1F8E9C2A7D6B5E02A98603EDA)
Полное имя : C:\Last.and.First.Men.2020.1080p.BluRay.x264.DTS-rus_BadBajo.mkv
Формат : Matroska
Версия формата : Version 4
Размер файла : 7,39 Гбайт
Продолжительность : 1 ч. 10 м.
Общий поток : 15,0 Мбит/сек
Название фильма : Last.and.First.Men.2020.1080p.BluRay.x264.DTS-rus_BadBajo
Дата кодирования : UTC 2020-05-25 12:50:21
Программа кодирования : mkvmerge v42.0.0 ('Overtime') 64-bit
Библиотека кодирования : libebml v1.3.10 + libmatroska v1.5.2
Обложка : Yes
Attachments : cover.jpg / small_cover.jpg

Видео
Идентификатор : 1
Формат : AVC
Формат/Информация : Advanced Video Codec
Профиль формата : High@L4.1
Настройки формата : CABAC / 4 Ref Frames
Параметр CABAC формата : Да
Параметр RefFrames формата : 4 кадра
Идентификатор кодека : V_MPEG4/ISO/AVC
Продолжительность : 1 ч. 10 м.
Битрейт : 11,5 Мбит/сек
Ширина : 1756 пикселей
Высота : 1068 пикселей
Соотношение сторон : 16:10
Режим частоты кадров : Постоянный
Частота кадров : 24,000 кадра/сек
Цветовое пространство : YUV
Субдискретизация насыщенности : 4:2:0
Битовая глубина : 8 бит
Тип развёртки : Прогрессивная
Бит/(Пиксели*Кадры) : 0.255
Размер потока : 5,53 Гбайт (75%)
Заголовок : Last.and.First.Men.2020.1080p.BluRay.x264.DTS-FGT
Библиотека кодирования : x264 core 148 r2795M aaa9aa8
Настройки программы : cabac=1 / ref=4 / deblock=1:-2:-2 / analyse=0x3:0x113 / me=umh / subme=9 / psy=1 / psy_rd=1.00:0.15 / mixed_ref=1 / me_range=16 / chroma_me=1 / trellis=2 / 8x8dct=1 / cqm=0 / deadzone=21,11 / fast_pskip=1 / chroma_qp_offset=-3 / threads=72 / lookahead_threads=3 / sliced_threads=0 / nr=0 / decimate=1 / interlaced=0 / bluray_compat=0 / constrained_intra=0 / bframes=3 / b_pyramid=2 / b_adapt=1 / b_bias=0 / direct=3 / weightb=1 / open_gop=0 / weightp=2 / keyint=250 / keyint_min=25 / scenecut=40 / intra_refresh=0 / rc_lookahead=50 / rc=2pass / mbtree=1 / bitrate=11500 / ratetol=1.0 / qcomp=0.60 / qpmin=0 / qpmax=69 / qpstep=4 / cplxblur=20.0 / qblur=0.5 / vbv_maxrate=31250 / vbv_bufsize=31250 / nal_hrd=none / filler=0 / ip_ratio=1.40 / aq=1:1.00
Язык : English
Default : Да
Forced : Нет

Аудио #1
Идентификатор : 2
Формат : DTS
Формат/Информация : Digital Theater Systems
Идентификатор кодека : A_DTS
Продолжительность : 1 ч. 10 м.
Вид битрейта : Постоянный
Битрейт : 1510 Кбит/сек
Каналы : 6 каналов
ChannelLayout : C L R Ls Rs LFE
Частота : 48,0 КГц
Частота кадров : 93,750 кадра/сек (512 SPF)
Битовая глубина : 24 бит
Метод сжатия : С потерями
Размер потока : 764 Мбайт (10%)
Заголовок : Last.and.First.Men.2020.DTS-rus_BadBajo
Язык : Russian
Default : Да
Forced : Да

Аудио #2
Идентификатор : 3
Формат : AC-3
Формат/Информация : Audio Coding 3
Коммерческое название : Dolby Digital
Идентификатор кодека : A_AC3
Продолжительность : 1 ч. 10 м.
Вид битрейта : Постоянный
Битрейт : 448 Кбит/сек
Каналы : 6 каналов
ChannelLayout : L R C LFE Ls Rs
Частота : 48,0 КГц
Частота кадров : 31,250 кадров/сек (1536 SPF)
Битовая глубина : 16 бит
Метод сжатия : С потерями
Размер потока : 227 Мбайт (3%)
Заголовок : Last.and.First.Men.2020.AC3-rus_BadBajo
Язык : Russian
ServiceKind/String : Complete Main
Default : Нет
Forced : Нет

Аудио #3
Идентификатор : 4
Формат : DTS
Формат/Информация : Digital Theater Systems
Идентификатор кодека : A_DTS
Продолжительность : 1 ч. 10 м.
Вид битрейта : Постоянный
Битрейт : 1509 Кбит/сек
Каналы : 6 каналов
ChannelLayout : C L R Ls Rs LFE
Частота : 48,0 КГц
Частота кадров : 93,750 кадра/сек (512 SPF)
Битовая глубина : 24 бит
Метод сжатия : С потерями
Размер потока : 764 Мбайт (10%)
Заголовок : Last.and.First.Men.2020.1080p.BluRay.x264.DTS-FGT
Язык : English
Default : Нет
Forced : Нет

Текст
Идентификатор : 5
Формат : UTF-8
Идентификатор кодека : S_TEXT/UTF8
Идентификатор кодека/Информация : UTF-8 Plain Text
Язык : English
Default : Нет
Forced : Нет

Меню
00:00:00.000 : en:Prelude
00:03:50.500 : en:Introduction
00:07:41.000 : en:A Minor Astronomical Event
00:09:02.292 : en:A Move to Neptune
00:11:43.417 : en:Physical Description of the Last Human Beings
00:16:30.458 : en:Architecture
00:23:13.000 : en:Childhood / Land of the Young
00:29:28.000 : en:Telepathic Unity
00:31:35.708 : en:The Navigators
00:37:47.000 : en:A New Doom
00:41:30.583 : en:Two Tasks
00:43:13.500 : en:No. 1: The Scattering of Seeds
00:44:43.000 : en:No. 2: Communicating with the Past
00:49:11.000 : en:Slow Destruction of Neptune
00:58:00.625 : en:The Universal End
01:06:26.000 : en:Credits

piratbit.pw



Скачать Последние и первые люди через торрент https://a.radikal.ru/a07/2005/34/795e04e519a1.jpg Скачать фильм Последние и первые люди через торрент бесплантно в хорошем качестве Описание: В данном псевдодокументальном фильме рассказывается история о людях, которые узнав о приближающейся гибели Земли, нашли ... 10 10 3
Торрент: Зарегистрирован [2020-05-25 14:26] · скачан: 35 раз
Статус: √ проверено
Размер: 7.39 GB
Как cкачать? Как скачать Последние и первые люди через торрент | UTorrent



Последний раз редактировалось: bober100 (2020-05-25 17:30), всего редактировалось 1 раз

28-11-2019 20:33  

Отключить всю рекламу на сайте

25-05-2020 19:18 Последние и первые люди Скачать торрент  

2020 год, чб фантастика и при этом не артхаус? заинтересован

upd: не осилилpiratbit.pw



    Дорогой пользователь! Огромная просьба, поблагодарите релизера, оцените раздачу и оставьте свои комментарий, если Вы скачали Последние и первые люди через торрент бесплатно! Внесите свою лепту в развитие PiratBit!
    Комментировать посты могут только пользователи прошедшие не сложную регистрацию
    Показать сообщения:    

    Последние и первые люди через торрент
    Скачать бесплатно Последние и первые люди
    Последние и первые люди скачать торрент
    Последние и первые люди смотреть онлайн
    Cкачать фильм Последние и первые люди бесплатно
    Последние и первые люди скачать торрент в хорошем качестве
    Последние и первые люди смотреть онлайн бесплатно в хорошем качестве


    Вы не можете начинать темы
    Вы не можете отвечать на сообщения
    Вы не можете редактировать свои сообщения
    Вы не можете удалять свои сообщения
    Вы не можете голосовать в опросах
    Вы не можете прикреплять файлы к сообщениям
    Вы можете скачивать файлы