Marvel's Avengers Deluxe Edition (супер цена) 159р. Внимание количество ограничено!!!

2 сезон

iTunes

iTunes

1

iTunes

iTunes

iTunes

WEBRip

iTunes

30
pack

Новость дня

ВАЖНО

!!Акция!!

Alien_RageХит недели

RePack

Horizon Zero Dawn

ИГРА 18+

pack

RePack

jed

!!Акция!!

Alien_Rage

RePack

fifa19

RePack

Assassins Creed: Odyssey

RePack

NEED FOR SPEED™ PAYBACK

4 сезон

9 сезон

Бесстыжие 9 сезон

Все сериалы

все сериалы на PB.wtf

RePack

FAR CRY 5
  

Савраска (Владимир Волошин) [1989 г., детский, семейный, комедия, SATRip-AVC] piratbit.pw

Савраска через торрент piratbit.pw

Размер: 1.39 GB | Добавлен: 3 мес. 29 д. назад | Торрент скачан:3 раза
Скачать  

22-05-2020 20:34 Савраска Скачать торрент  

Савраска

Год выпуска: 1989
Страна: СССР | киностудия им. Александра Довженко | ТО ''Луч''
Жанр: детский, семейный, комедия
Продолжительность: 01:03:06
Перевод: не требуется

Режиссер: Владимир Волошин

В ролях: Дмитрий Емельянов, Елена Кузовик, Татьяна Аксюта, Алла Одинг, Григорий Либерчук, Андрей Каменцев, Анастасия Горпинченко, Алла Подлевская, Виталий Карлинский, Анна Варпаховская, Михаил Пахоменко, Георгий Морозюк, Борис Хмельницкий, Владимир Абазопуло, Богдан Бенюк, Александр Миронов, Александр Белина, Ада Волошина

Описание: В южном портовом городе живет мальчик Парамон Саврасов. Внешне жизнь Савраски, как называли его друзья, проходит довольно-таки обыкновенно - школьные дела, домашние обязанности. Приближение 8 Марта нарушает обычный ритм жизни. Савраска решил раздобыть денег на подарок маме и однокласснице Серафиме...

rating «Рекламы нет»

Файл
Формат: MKV
Качество: SATRip-AVC (DVB)
Видео: MPEG-4 AVC, 720->768x572 (4:3), 25.000 fps, 2960 kbps, 0.287 bit/pixel
Аудио: Русский, AC3, 2 chnls, 192 kbps | Оригинал
x264 [info]: frame I:530 Avg QP:17.57 size: 66789
x264 [info]: frame P:20964 Avg QP:19.46 size: 31673
x264 [info]: frame B:73178 Avg QP:20.08 size: 9588
x264 [info]: consecutive B-frames: 1.6% 3.5% 8.7% 19.5% 22.0% 36.9% 4.9% 1.7% 0.7% 0.3% 0.1% 0.0% 0.0%
Format : Matroska
Format version : Version 4
File size : 1.39 GiB
Duration : 1 h 3 min
Overall bit rate : 3 154 kb/s
Movie name : Савраска (1989) - Rip by -{am}-
Encoded date : UTC 2020-05-22 16:45:21
Writing application : mkvmerge v7.2.0 ('On Every Street') 32bit built on Sep 13 2014 15:42:11
Writing library : libebml v1.3.0 + libmatroska v1.4.1
Attachments : poster.png

Video
ID : 1
Format : AVC
Format/Info : Advanced Video Codec
Format profile : High@L4.1
Format settings : CABAC / 16 Ref Frames
Format settings, CABAC : Yes
Format settings, Reference : 16 frames
Codec ID : V_MPEG4/ISO/AVC
Duration : 1 h 3 min
Bit rate : 2 960 kb/s
Width : 720 pixels
Height : 572 pixels
Display aspect ratio : 4:3
Frame rate mode : Constant
Frame rate : 25.000 FPS
Color space : YUV
Chroma subsampling : 4:2:0
Bit depth : 8 bits
Scan type : Progressive
Bits/(Pixel*Frame) : 0.287
Stream size : 1.30 GiB (94%)
Title : Savraska.1989.{am}.768.Rus
Writing library : x264 core 160 r3000+53 e3e4c3e t_mod_New [(8 & 10)-bit@all X86_64]
Encoding settings : cabac=1 / ref=16 / deblock=1:-2:-1 / analyse=0x3:0x113 / me=umh / subme=11 / psy=1 / fade_compensate=0.00 / psy_rd=1.00:0.20 / mixed_ref=1 / me_range=64 / chroma_me=1 / trellis=2 / 8x8dct=1 / cqm=2 / deadzone=21,11 / fast_pskip=0 / chroma_qp_offset=-5 / threads=18 / lookahead_threads=4 / sliced_threads=0 / nr=0 / decimate=0 / interlaced=0 / bluray_compat=0 / constrained_intra=0 / fgo=0 / bframes=12 / b_pyramid=2 / b_adapt=2 / b_bias=0 / direct=3 / weightb=1 / open_gop=0 / weightp=2 / keyint=250 / keyint_min=25 / scenecut=40 / intra_refresh=0 / rc_lookahead=40 / rc=crf / mbtree=0 / crf=18.0000 / qcomp=0.60 / qpmin=0:0:0 / qpmax=69:69:69 / qpstep=4 / vbv_maxrate=50000 / vbv_bufsize=62500 / crf_max=30.0 / nal_hrd=none / filler=0 / ip_ratio=1.40 / pb_ratio=1.30 / aq=3:1.00 / aq-sensitivity=10.00 / aq-factor=1.00:1.00:1.00 / aq2=0 / aq3=0
Language : Russian
Default : Yes
Forced : No

Audio
ID : 2
Format : AC-3
Format/Info : Audio Coding 3
Commercial name : Dolby Digital
Codec ID : A_AC3
Duration : 1 h 3 min
Bit rate mode : Constant
Bit rate : 192 kb/s
Channel(s) : 2 channels
Channel layout : L R
Sampling rate : 48.0 kHz
Frame rate : 31.250 FPS (1536 SPF)
Compression mode : Lossy
Stream size : 86.7 MiB (6%)
Title : Original
Language : Russian
Service kind : Complete Main
Default : Yes
Forced : No
piratbit.pw



Скачать Савраска через торрент https://img10.lostpic.net/2020/05/30/9e3b3adc8a0dd7c40f11f11168666e03.th.png Скачать фильм Савраска через торрент бесплантно в хорошем качестве Описание: В южном портовом городе живет мальчик Парамон Саврасов. Внешне жизнь Савраски, как называли его друзья, проходит довольно-таки ... 10 10 2
Info! Золотая раздача, скачанное не засчитывается.
Торрент: Зарегистрирован [2020-05-22 20:34] · скачан: 3 раз
Статус: √ проверено
Размер: 1.39 GB
Как cкачать? Как скачать Савраска через торрент | qTorrent

28-11-2019 20:33  

Отключить всю рекламу на сайте

    Дорогой пользователь! Огромная просьба, поблагодарите релизера, оцените раздачу и оставьте свои комментарий, если Вы скачали Савраска через торрент бесплатно! Внесите свою лепту в развитие PiratBit!
    Комментировать посты могут только пользователи прошедшие не сложную регистрацию
    Показать сообщения:    

    Савраска через торрент
    Скачать бесплатно Савраска
    Савраска скачать торрент
    Савраска смотреть онлайн
    Cкачать фильм Савраска бесплатно
    Савраска скачать торрент в хорошем качестве
    Савраска смотреть онлайн бесплатно в хорошем качестве


    Вы не можете начинать темы
    Вы не можете отвечать на сообщения
    Вы не можете редактировать свои сообщения
    Вы не можете удалять свои сообщения
    Вы не можете голосовать в опросах
    Вы не можете прикреплять файлы к сообщениям
    Вы можете скачивать файлы