1 сезон

1 сезон

iTunes

1

КиноПоиск HD

Кинопоиск HD

iTunes

13

1 сезон

RePack

30

Новинка

ВАЖНО

ИГРА 18+

pack

RePack

MK11
pack

Легкие деньги

RePack

jed

RePack

fifa19

RePack

RDR2

RePack

NEED FOR SPEED™ PAYBACK

4 сезон

9 сезон

Бесстыжие 9 сезон

Все сериалы

все сериалы на PB.wtf

RePack

FAR CRY 5
  
Magnet ссылка

Огненные птицы / Fire Birds (Дэвид Грин) [1990, Боевик, Приключения, BDRip 720p] 3xAVO piratbit.pw

Огненные птицы через торрент piratbit.pw

Размер: 4.37 GB | Добавлен: 11 мес. назад | Торрент скачан:2 раза
Скачать  

22-05-2020 19:33 Огненные птицы Скачать торрент  

Огненные птицы | Fire Birds
Год выпуска: 1990
Страна: США
Студия: Nova International Films, Touchstone Pictures
Жанр: Боевик, Приключения
Продолжительность: 01:26:38
Перевод:
Авторский (одноголосый) | Юрий Живов
Авторский (одноголосый) | Михаил Иванов
Авторский (одноголосый) | Максим Латышев
Субтитры: Английские

Режиссер: Дэвид Грин

rating

В ролях: Николас Кейдж, Томми Ли Джонс, Шон Янг, Брайан Кестнер, Иллэна Дайамант, Дейл Дай, Мэри Эллен Трейнор, Дж.А. Престон, Питер Онорати, Чарльз Лэниер

Описание: Когда международный кокаиновый картель обращается к оружию высокой технологии и использует пилотов-профессионалов экстракласса, армия США пускает в ход «апачей» - элитные вертолетные боевые отряды, специально обученные для воздушного боя. Напоминает «Лучшего стрелка» с Томом Крузом. (М. Иванов)

Качество: BDRip 720p
Формат: MKV

Видео: AVC, 1280x720 (16:9), 23.976 fps, 6 456 kbps (0.292 bit/pixel)
Аудио #1: AC3, 48 kHz, 2 ch, 192 kbps - Русский, AVO | Юрий Живов
Аудио #2: AC3, 48 kHz, 2 ch, 192 kbps - Русский, AVO | Михаил Иванов
Аудио #3: AC3, 48 kHz, 2 ch, 192 kbps - Русский, AVO | Максим Латышев
Аудио #4: AC3, 48 kHz, 2 ch, 192 kbps - Английский
скриншот  скриншот  скриншот  скриншот  скриншот  

General
Unique ID : 195844749685117185581456342341945070289 (0x935653A84F659B7F8EABAAC2982F12D1)
Complete name : D:КИНО НА ДИСКОгненные птицы.1990 (Н.Кейдж, Т.Ли Джонс).mkv
Format : Matroska
Format version : Version 2
File size : 4.37 GiB
Duration : 1 h 26 min
Overall bit rate : 7 220 kb/s
Encoded date : UTC 2020-05-19 14:10:15
Writing application : mkvmerge v5.3.0 ('I could have danced') built on Feb 9 2012 10:38:07
Writing library : libebml v1.2.3 + libmatroska v1.3.0
Cover : Yes
Attachments : cover.jpg

Video
ID : 1
Format : AVC
Format/Info : Advanced Video Codec
Format profile : High@L4.1
Format settings : CABAC / 9 Ref Frames
Format settings, CABAC : Yes
Format settings, ReFrames : 9 frames
Codec ID : V_MPEG4/ISO/AVC
Duration : 1 h 26 min
Bit rate : 6 456 kb/s
Width : 1 280 pixels
Height : 720 pixels
Display aspect ratio : 16:9
Frame rate mode : Constant
Frame rate : 23.976 (24000/1001) FPS
Color space : YUV
Chroma subsampling : 4:2:0
Bit depth : 8 bits
Scan type : Progressive
Bits/(Pixel*Frame) : 0.292
Stream size : 3.82 GiB (87%)
Writing library : x264 core 160 r3000 33f9e14
Encoding settings : cabac=1 / ref=9 / deblock=1:-3:-3 / analyse=0x3:0x133 / me=umh / subme=11 / psy=1 / psy_rd=1.00:0.00 / mixed_ref=1 / me_range=32 / chroma_me=1 / trellis=2 / 8x8dct=1 / cqm=0 / deadzone=21,11 / fast_pskip=0 / chroma_qp_offset=-2 / threads=12 / lookahead_threads=4 / sliced_threads=0 / nr=0 / decimate=0 / interlaced=0 / bluray_compat=0 / constrained_intra=0 / bframes=11 / b_pyramid=2 / b_adapt=2 / b_bias=0 / direct=3 / weightb=1 / open_gop=0 / weightp=2 / keyint=240 / keyint_min=23 / scenecut=40 / intra_refresh=0 / rc=2pass / mbtree=0 / bitrate=6456 / ratetol=1.0 / qcomp=0.75 / qpmin=0 / qpmax=69 / qpstep=4 / cplxblur=20.0 / qblur=0.5 / ip_ratio=1.26 / pb_ratio=1.30 / aq=2:0.80
Language : English
Default : Yes
Forced : No
Color range : Limited
Color primaries : BT.709
Transfer characteristics : BT.709
Matrix coefficients : BT.709

Audio #1
ID : 2
Format : AC-3
Format/Info : Audio Coding 3
Commercial name : Dolby Digital
Codec ID : A_AC3
Duration : 1 h 26 min
Bit rate mode : Constant
Bit rate : 192 kb/s
Channel(s) : 2 channels
Channel layout : L R
Sampling rate : 48.0 kHz
Frame rate : 31.250 FPS (1536 SPF)
Bit depth : 16 bits
Compression mode : Lossy
Stream size : 119 MiB (3%)
Title : AVO | Юрий Живов
Language : Russian
Service kind : Complete Main
Default : Yes
Forced : Yes

Audio #2
ID : 3
Format : AC-3
Format/Info : Audio Coding 3
Commercial name : Dolby Digital
Codec ID : A_AC3
Duration : 1 h 26 min
Bit rate mode : Constant
Bit rate : 192 kb/s
Channel(s) : 2 channels
Channel layout : L R
Sampling rate : 48.0 kHz
Frame rate : 31.250 FPS (1536 SPF)
Bit depth : 16 bits
Compression mode : Lossy
Stream size : 119 MiB (3%)
Title : AVO | Михаил Иванов
Language : Russian
Service kind : Complete Main
Default : No
Forced : No

Audio #3
ID : 4
Format : AC-3
Format/Info : Audio Coding 3
Commercial name : Dolby Digital
Codec ID : A_AC3
Duration : 1 h 26 min
Bit rate mode : Constant
Bit rate : 192 kb/s
Channel(s) : 2 channels
Channel layout : L R
Sampling rate : 48.0 kHz
Frame rate : 31.250 FPS (1536 SPF)
Bit depth : 16 bits
Compression mode : Lossy
Stream size : 119 MiB (3%)
Title : AVO | Максим Латышев
Language : Russian
Service kind : Complete Main
Default : No
Forced : No

Audio #4
ID : 5
Format : AC-3
Format/Info : Audio Coding 3
Commercial name : Dolby Digital
Codec ID : A_AC3
Duration : 1 h 26 min
Bit rate mode : Constant
Bit rate : 192 kb/s
Channel(s) : 2 channels
Channel layout : L R
Sampling rate : 48.0 kHz
Frame rate : 31.250 FPS (1536 SPF)
Bit depth : 16 bits
Compression mode : Lossy
Stream size : 119 MiB (3%)
Title : Original
Language : English
Service kind : Complete Main
Default : No
Forced : No

Text
ID : 6
Format : UTF-8
Codec ID : S_TEXT/UTF8
Codec ID/Info : UTF-8 Plain Text
Language : English
Default : No
Forced : No

Menu
00:00:00.000 : :Chapter 1
00:05:54.145 : :Chapter 2
00:08:56.703 : :Chapter 3
00:12:37.507 : :Chapter 4
00:18:36.866 : :Chapter 5
00:22:57.666 : :Chapter 6
00:31:39.147 : :Chapter 7
00:36:08.875 : :Chapter 8
00:41:37.203 : :Chapter 9
00:47:21.338 : :Chapter 10
00:56:50.866 : :Chapter 11
01:02:03.553 : :Chapter 12
01:09:32.585 : :Chapter 13
01:19:43.404 : :Chapter 14
01:23:55.030 : :Chapter 15

piratbit.pw



Скачать Огненные птицы через торрент http://s011.radikal.ru/i315/1605/47/5ea38c8e26bb.jpg Скачать фильм Огненные птицы через торрент бесплантно в хорошем качестве Описание: Когда международный кокаиновый картель обращается к оружию высокой технологии и использует пилотов-профессионалов экстракласса, ... 10 10 2
Торрент: Зарегистрирован [2020-05-22 19:33] · скачан: 2 раз
Статус: √ проверено
Размер: 4.37 GB
Как cкачать? Как скачать Огненные птицы через торрент | UTorrent

28-11-2019 20:33  

Отключить всю рекламу на сайте

    Дорогой пользователь! Огромная просьба, поблагодарите релизера, оцените раздачу и оставьте свои комментарий, если Вы скачали Огненные птицы через торрент бесплатно! Внесите свою лепту в развитие PiratBit!
    Комментировать посты могут только пользователи прошедшие не сложную регистрацию
    Показать сообщения:    

    Огненные птицы через торрент
    Скачать бесплатно Огненные птицы
    Огненные птицы скачать торрент
    Огненные птицы смотреть онлайн
    Cкачать фильм Огненные птицы бесплатно
    Огненные птицы скачать торрент в хорошем качестве
    Огненные птицы смотреть онлайн бесплатно в хорошем качестве


    Вы не можете начинать темы
    Вы не можете отвечать на сообщения
    Вы не можете редактировать свои сообщения
    Вы не можете удалять свои сообщения
    Вы не можете голосовать в опросах
    Вы не можете прикреплять файлы к сообщениям
    Вы можете скачивать файлы