Ссылка на приватное зеркало всего за 1$. Внимание количество ограничено!!!

iTunes

iTunes

iTunes

1

iTunes

iTunes

iTunes

WEBRip

iTunes

30
pack

$ от Little Big

ВАЖНО

!!Акция!!

Alien_RageХит недели

RePack

Resident Evil 21

ИГРА 18+

pack

RePack

jed

!!Акция!!

Alien_Rage

RePack

fifa19

RePack

Assassins Creed: Odyssey

RePack

NEED FOR SPEED™ PAYBACK

4 сезон

9 сезон

Бесстыжие 9 сезон

Все сериалы

все сериалы на PB.wtf

RePack

FAR CRY 5
  

Старгёрл / Stargirl / Сезон: 1 / Серии: 1-13 из 13 (Энди Армаганян, Тоа Фрейзер, Роб Харди) [2020, Фантастика, фэнтези, боевик, криминал, приключения, WEB-DL 720p] MVO [Lostfilm] piratbit.pw

Старгёрл через торрент piratbit.pw

Раздают: 2 [ 0 KB/s ] Качают: 6 [ 0 KB/s ]
Размер: 18.13 GB | Добавлен: 10 ч. назад | Торрент скачан:4 раза
Скачать  

22-05-2020 09:59 Старгёрл Скачать торрент  

Старгёрл | Stargirl
«***»
Год выпуска: 2020
Страна: США
Студия: Berlanti Productions, DC Comics, Mad Ghost Productions, Warner Bros. Television
Жанр: Фантастика, фэнтези, боевик, драма, криминал, приключения
Продолжительность: ~ 00:54:00
Перевод: Профессиональный (многоголосый) | Lostfilm
Субтитры: Rus, Eng (SDH)

Режиссер: Энди Армаганян, Тоа Фрейзер, Роб Харди

rating


В ролях: Брэк Бэссинджер, Люк Уилсон, Анжелика Вашингтон, Кэмерон Джеллман, Джоэл МакХэйл, Нельсон Ли, Кристофер Джеймс Бэйкер, Мэг Келли, Нил Джексон, Ивет Монреаль и другие.

Описание: Кортни Уитмор (Брэк Бэссинджер) вместе с мамой Барбарой (Эми Смарт), отчимом Патом Дуганом (Люк Уилсон) и сводным братом Майком (Траэ Романо) переезжает из Лос-Анджелеса в провинциальный городок в штате Небраска. Когда однажды Кортни обнаруживает в вещах Пата Космический Посох, — наследие погибшего Стармена (Джоэл МакХэйл), — и артефакт внезапно отвечает ей, девушка решает использовать открывшиеся у нее сверхъестественные способности во имя добра. Пат, бывший помощник Стармена, возвращается к работе напарника супергероя, но на этот раз в качестве пилота гигантского робота. Узнав, что в маленьком городке практически у всех на виду прячутся злодеи, Старгёрл и Пат собирают команду, чтобы помешать планам врагов и спасти мир...

Качество: WEB-DL 720p
Формат: MKV

Видео: AVC, 1280 x 576 (2.199), 23.976 fps, ~4 995 kbps
Аудио Rus: AC-3, 48 kHz, 2 ch, 384 kbps |Lostfilm|
Аудио Eng: E-AC-3, 48 kHz, 6 ch, 640 kbps |Original|
скриншот  скриншот  скриншот  скриншот  скриншот  

Общее
Уникальный идентификатор : 9128575782185780650087830424930513104 (0x6DE1988E0ED2AF35697B3D37ADC70D0)
Полное имя : E:\_Сериалы\_Сериалы\Старгёрл\Stargirl.S01.WEBDL.720p.LostFilm\Stargirl.S01E01.WEBDL.720p.LF.RGzsRutracker.mkv
Формат : Matroska
Версия формата : Version 4
Размер файла : 2,24 Гбайт
Продолжительность : 53 м. 8 с.
Общий поток : 6 021 Кбит/сек
Дата кодирования : UTC 2020-05-22 09:16:27
Программа кодирования : mkvmerge v46.0.0 ('No Deeper Escape') 64-bit
Библиотека кодирования : libebml v1.3.10 + libmatroska v1.5.2

Видео
Идентификатор : 1
Формат : AVC
Формат/Информация : Advanced Video Codec
Профиль формата : High@L3.1
Настройки формата : CABAC / 4 Ref Frames
Параметр CABAC формата : Да
Параметр RefFrames формата : 4 кадра
Идентификатор кодека : V_MPEG4/ISO/AVC
Продолжительность : 53 м. 8 с.
Вид битрейта : Постоянный
Битрейт : 4 995 Кбит/сек
Номинальный битрейт : 6 000 Кбит/сек
Ширина : 1 280 пикселей
Высота : 576 пикселей
Соотношение сторон : 2,2:1
Соотношение сторон в оригинале : 2,2:1
Режим частоты кадров : Постоянный
Частота кадров : 23,976 (24000/1001) кадра/сек
Цветовое пространство : YUV
Субдискретизация насыщенности : 4:2:0
Битовая глубина : 8 бит
Тип развёртки : Прогрессивная
Бит/(Пиксели*Кадры) : 0.283
Размер потока : 1,85 Гбайт (83%)
Язык : English
Default : Да
Forced : Нет
Цветовой диапазон : Limited
Основные цвета : BT.709
Характеристики трансфера : BT.709
Коэффициенты матрицы : BT.709

Аудио #1
Идентификатор : 2
Формат : AC-3
Формат/Информация : Audio Coding 3
Коммерческое название : Dolby Digital
Идентификатор кодека : A_AC3
Продолжительность : 53 м. 8 с.
Вид битрейта : Постоянный
Битрейт : 384 Кбит/сек
Каналы : 2 канала
Channel layout : L R
Частота : 48,0 КГц
Частота кадров : 31,250 кадров/сек (1536 SPF)
Метод сжатия : С потерями
Размер потока : 146 Мбайт (6%)
Язык : Russian
Service kind : Complete Main
Default : Да
Forced : Нет

Аудио #2
Идентификатор : 3
Формат : E-AC-3
Формат/Информация : Enhanced AC-3
Коммерческое название : Dolby Digital Plus
Идентификатор кодека : A_EAC3
Продолжительность : 53 м. 8 с.
Вид битрейта : Постоянный
Битрейт : 640 Кбит/сек
Каналы : 6 каналов
Channel layout : L R C LFE Ls Rs
Частота : 48,0 КГц
Частота кадров : 31,250 кадров/сек (1536 SPF)
Метод сжатия : С потерями
Размер потока : 243 Мбайт (11%)
Язык : English
Service kind : Complete Main
Default : Нет
Forced : Нет

Текст #1
Идентификатор : 4
Формат : UTF-8
Идентификатор кодека : S_TEXT/UTF8
Идентификатор кодека/Информация : UTF-8 Plain Text
Продолжительность : 52 м. 10 с.
Битрейт : 70 бит/сек
Count of elements : 555
Размер потока : 27,0 Кбайт (0%)
Язык : Russian
Default : Нет
Forced : Нет

Текст #2
Идентификатор : 5
Формат : UTF-8
Идентификатор кодека : S_TEXT/UTF8
Идентификатор кодека/Информация : UTF-8 Plain Text
Продолжительность : 52 м. 11 с.
Битрейт : 45 бит/сек
Count of elements : 573
Размер потока : 17,6 Кбайт (0%)
Язык : English
Default : Нет
Forced : Нет

Текст #3
Идентификатор : 6
Формат : UTF-8
Идентификатор кодека : S_TEXT/UTF8
Идентификатор кодека/Информация : UTF-8 Plain Text
Продолжительность : 52 м. 39 с.
Битрейт : 53 бит/сек
Count of elements : 712
Размер потока : 20,5 Кбайт (0%)
Заголовок : SDH
Язык : English
Default : Нет
Forced : Нет

Когда раздача ведётся путём добавления новых серий, при каждом добавлении создётся новый торрент. Чтобы начать докачку новой серии, пользователям необходимо сделать следующее:
(1) остановить скачивание,
(2) удалить старый торрент у себя из клиента (старые серии удалять не надо),
(3) скачать новый торрент и запустить его у себя в клиенте вместо старого, при этом указать клиенту путь в старую папку, куда и должно происходить скачивание новых серий.
Ваш клиент при этом должен произвести хеширование (проверку) старой папки (если не производит сам - помогите ему сделать это), и будет докачивать только те серии, которых у вас ещё нет. Старые серии при этом не удаляются, а продолжают раздаваться!
Eсли вы уже удалили старые серии, то предотвратить повторную закачку старых серий можно, отжав галочку в соответсвующих местах при запуске нового торрента. По возможности, желательно не удалять старые серии как можно дольше, чтобы релизер не столько продолжал раздавать старые серии, а смог сконцентрироваться на новых.
piratbit.pw



Скачать Старгёрл через торрент https://i4.imageban.ru/out/2020/05/22/e0e929efa6a50ed07a1bff275f3517f6.png Скачать фильм Старгёрл через торрент бесплантно в хорошем качестве Описание: Кортни Уитмор (Брэк Бэссинджер) вместе с мамой Барбарой (Эми Смарт), отчимом Патом Дуганом (Люк Уилсон) и сводным братом Майком ... 10 10 10
Торрент: Зарегистрирован [2020-08-14 02:53] · скачан: 4 раз
Статус: √ проверено
Размер: 18.13 GB
Как cкачать? Как скачать Старгёрл через торрент | qTorrent

% Раздел Тема Автор DL S | L
Зарубежные сериалы [ 37.08 GB ] Старгёрл / Stargirl / Сезон: 1 / Серии: 1-13 из 13 [2020 WEB-DL 1080p] MVO [Lostfilm] bober100 Скачать
1 | 1
Зарубежные сериалы [ 1.22 GB ] Старгёрл / Stargirl / Сезон: 1 / Серии: 1-2 из 13 [2020 WEB-DLRip] MVO [Lostfilm] bober100 Скачать
1 | 0
Зарубежные сериалы [ 7.44 GB ] Старгёрл / Stargirl / Сезон: 1 / Серии: 1-13 из 13 [2020 WEB-DLRip] MVO [TVShows] bober100 Скачать
3 | 1
Зарубежные сериалы [ 36.15 GB ] Старгёрл / Stargirl / Сезон: 1 / Серии: 1-13 из 13 [2020 WEB-DL 1080p] MVO [Jaskier] bober100 Скачать
2 | 0
Зарубежные сериалы [ 17.2 GB ] Старгёрл / Stargirl / Сезон: 1 / Серии: 1-13 из 13 [2020 WEB-DL 720p] MVO [Jaskier] bober100 Скачать
2 | 0
Зарубежные сериалы [ 6.63 GB ] Старгёрл / Stargirl / Сезон: 1 / Серии: 1-13 из 13 [2020 WEB-DLRip] MVO [Jaskier] bober100 Скачать
5 | 0


Последний раз редактировалось: bober100 (2020-08-14 02:52), всего редактировалось 9 раз(а)

28-11-2019 20:33  

Отключить всю рекламу на сайте

22-05-2020 10:15 Старгёрл Скачать торрент  

По постеру сначала подумал что это наш сериалpiratbit.pw



    Дорогой пользователь! Огромная просьба, поблагодарите релизера, оцените раздачу и оставьте свои комментарий, если Вы скачали Старгёрл через торрент бесплатно! Внесите свою лепту в развитие PiratBit!
    Комментировать посты могут только пользователи прошедшие не сложную регистрацию
    Показать сообщения:    

    Старгёрл через торрент
    Скачать бесплатно Старгёрл
    Старгёрл скачать торрент
    Старгёрл смотреть онлайн
    Cкачать фильм Старгёрл бесплатно
    Старгёрл скачать торрент в хорошем качестве
    Старгёрл смотреть онлайн бесплатно в хорошем качестве


    Вы не можете начинать темы
    Вы не можете отвечать на сообщения
    Вы не можете редактировать свои сообщения
    Вы не можете удалять свои сообщения
    Вы не можете голосовать в опросах
    Вы не можете прикреплять файлы к сообщениям
    Вы можете скачивать файлы