Marvel's Avengers Deluxe Edition (супер цена) 159р. Внимание количество ограничено!!!

2 сезон

iTunes

iTunes

1

iTunes

iTunes

iTunes

WEBRip

iTunes

30
pack

Новость дня

ВАЖНО

!!Акция!!

Alien_RageХит недели

RePack

Horizon Zero Dawn

ИГРА 18+

pack

RePack

jed

!!Акция!!

Alien_Rage

RePack

fifa19

RePack

Assassins Creed: Odyssey

RePack

NEED FOR SPEED™ PAYBACK

4 сезон

9 сезон

Бесстыжие 9 сезон

Все сериалы

все сериалы на PB.wtf

RePack

FAR CRY 5
  

Ральф, здравствуй! (Михаил Беликов) [1975 г., детский, короткометражный, SATRip-AVC] piratbit.pw

Ральф, здравствуй! через торрент piratbit.pw

Раздают: 1 [ 0 KB/s ]
Размер: 317 MB | Добавлен: 3 мес. 29 д. назад | Торрент скачан:2 раза
Скачать  

20-05-2020 10:54 Ральф, здравствуй! Скачать торрент  

Ральф, здравствуй!

Год выпуска: 1975
Страна: СССР | киностудия им. Александра Довженко
Жанр: детский, короткометражный
Продолжительность: 00:23:26
Перевод: не требуется

Режиссер: Михаил Беликов

В ролях: Игорь Крипак, Ирина Терещенко, Валентин Грудинин, Виктор Панченко, Леонид Марченко, Агафья Болотова, Сергей Шеметило

Описание: Дима и Рита вместе с детьми из группы убегают из детского садика на поиски «попугайной собаки». Никто не верит, что собака по кличке Ральф умеет говорить. Разыскивая Ральфа и его хозяина — циркового артиста, дети преодолевают множество преград и переживают незабываемые приключения в большом городе.

«Рекламы нет»

Файл
Формат: MKV
Кодек: x264
Качество: SATRip-AVC (DVB)
Видео: 704->750x564 (4:3), 25.000 fps, 1693 kbps, 0.171 bit/pixel
Аудио: Русский, AC3, 2 chnls, 192 kbps | Оригинал
x264 [info]: frame I:228 Avg QP:17.77 size: 36393
x264 [info]: frame P:9474 Avg QP:19.31 size: 16773
x264 [info]: frame B:25446 Avg QP:21.90 size: 5124
x264 [info]: consecutive B-frames: 4.3% 6.9% 12.9% 30.8% 18.2% 20.2% 3.6% 1.8% 0.6% 0.5% 0.2% 0.1% 0.0% 0.0% 0.0% 0.0% 0.0%
Format : Matroska
Format version : Version 4
File size : 317 MiB
Duration : 23 min 26 s
Overall bit rate : 1 889 kb/s
Movie name : Ральф, здравствуй! (1975) - Rip by -{am}-
Encoded date : UTC 2020-05-14 21:59:58
Writing application : mkvmerge v7.2.0 ('On Every Street') 32bit built on Sep 13 2014 15:42:11
Writing library : libebml v1.3.0 + libmatroska v1.4.1
Attachments : poster.png

Video
ID : 1
Format : AVC
Format/Info : Advanced Video Codec
Format profile : High@L4.1
Format settings : CABAC / 16 Ref Frames
Format settings, CABAC : Yes
Format settings, Reference : 16 frames
Codec ID : V_MPEG4/ISO/AVC
Duration : 23 min 25 s
Bit rate : 1 693 kb/s
Width : 704 pixels
Height : 564 pixels
Display aspect ratio : 4:3
Original display aspect rat : 4:3
Frame rate mode : Constant
Frame rate : 25.000 FPS
Color space : YUV
Chroma subsampling : 4:2:0
Bit depth : 8 bits
Scan type : Progressive
Bits/(Pixel*Frame) : 0.171
Stream size : 284 MiB (90%)
Title : Ralf.zdravstvui.1975.{am}.750.Rus
Writing library : x264 core 160 r3000+53 e3e4c3e t_mod_New [(8 & 10)-bit@all X86_64]
Encoding settings : cabac=1 / ref=16 / deblock=1:-3:0 / analyse=0x3:0x113 / me=umh / subme=11 / psy=1 / fade_compensate=0.00 / psy_rd=1.00:0.20 / mixed_ref=1 / me_range=64 / chroma_me=1 / trellis=2 / 8x8dct=1 / cqm=2 / deadzone=21,11 / fast_pskip=0 / chroma_qp_offset=-5 / threads=18 / lookahead_threads=4 / sliced_threads=0 / nr=0 / decimate=0 / interlaced=0 / bluray_compat=0 / constrained_intra=0 / fgo=0 / bframes=16 / b_pyramid=2 / b_adapt=2 / b_bias=0 / direct=3 / weightb=1 / open_gop=0 / weightp=2 / keyint=250 / keyint_min=25 / scenecut=40 / intra_refresh=0 / rc_lookahead=40 / rc=crf / mbtree=0 / crf=18.0000 / qcomp=0.60 / qpmin=0:0:0 / qpmax=69:69:69 / qpstep=4 / vbv_maxrate=50000 / vbv_bufsize=62500 / crf_max=30.0 / nal_hrd=none / filler=0 / ip_ratio=1.40 / pb_ratio=1.30 / aq=3:1.00 / aq-sensitivity=10.00 / aq-factor=1.00:1.00:1.00 / aq2=0 / aq3=0
Language : Russian
Default : Yes
Forced : No

Audio
ID : 2
Format : AC-3
Format/Info : Audio Coding 3
Commercial name : Dolby Digital
Codec ID : A_AC3
Duration : 23 min 25 s
Bit rate mode : Constant
Bit rate : 192 kb/s
Channel(s) : 2 channels
Channel layout : L R
Sampling rate : 48.0 kHz
Frame rate : 31.250 FPS (1536 SPF)
Compression mode : Lossy
Delay relative to video : 1 s 0 ms
Stream size : 32.2 MiB (10%)
Title : Original
Language : Russian
Service kind : Complete Main
Default : Yes
Forced : No
скриншот  скриншот  скриншот  скриншот  

скриншот  скриншот  скриншот  скриншот  

скриншот  скриншот  скриншот  скриншот  

скриншот  скриншот  скриншот  скриншот  
piratbit.pw



Скачать Ральф, здравствуй! через торрент https://img11.lostpic.net/2020/05/20/8e795fd262ee23b6d4593408ca730b5e.th.png Скачать фильм Ральф, здравствуй! через торрент бесплантно в хорошем качестве Описание: Дима и Рита вместе с детьми из группы убегают из детского садика на поиски «попугайной собаки». Никто не верит, что собака по ... 5 10 1
Info! Золотая раздача, скачанное не засчитывается.
Торрент: Зарегистрирован [2020-05-20 10:54] · скачан: 2 раз
Статус: √ проверено
Размер: 317 MB
Как cкачать? Как скачать Ральф, здравствуй! через торрент | qTorrent

28-11-2019 20:33  

Отключить всю рекламу на сайте

    Дорогой пользователь! Огромная просьба, поблагодарите релизера, оцените раздачу и оставьте свои комментарий, если Вы скачали Ральф, здравствуй! через торрент бесплатно! Внесите свою лепту в развитие PiratBit!
    Комментировать посты могут только пользователи прошедшие не сложную регистрацию
    Показать сообщения:    

    Ральф, здравствуй! через торрент
    Скачать бесплатно Ральф, здравствуй!
    Ральф, здравствуй! скачать торрент
    Ральф, здравствуй! смотреть онлайн
    Cкачать фильм Ральф, здравствуй! бесплатно
    Ральф, здравствуй! скачать торрент в хорошем качестве
    Ральф, здравствуй! смотреть онлайн бесплатно в хорошем качестве


    Вы не можете начинать темы
    Вы не можете отвечать на сообщения
    Вы не можете редактировать свои сообщения
    Вы не можете удалять свои сообщения
    Вы не можете голосовать в опросах
    Вы не можете прикреплять файлы к сообщениям
    Вы можете скачивать файлы