Marvel's Avengers Deluxe Edition (супер цена) 159р. Внимание количество ограничено!!!

2 сезон

iTunes

iTunes

1

iTunes

iTunes

iTunes

WEBRip

iTunes

30
pack

Новость дня

ВАЖНО

!!Акция!!

Alien_RageХит недели

RePack

Horizon Zero Dawn

ИГРА 18+

pack

RePack

jed

!!Акция!!

Alien_Rage

RePack

fifa19

RePack

Assassins Creed: Odyssey

RePack

NEED FOR SPEED™ PAYBACK

4 сезон

9 сезон

Бесстыжие 9 сезон

Все сериалы

все сериалы на PB.wtf

RePack

FAR CRY 5
  

Упыри (Максим Сирый, Андрей Гринько) [2019, Ужасы, WEB-DL 1080p] piratbit.pw

Упыри через торрент piratbit.pw

Размер: 2.97 GB | Добавлен: 4 мес. 5 д. назад | Торрент скачан:180 раз
Скачать  

14-05-2020 15:07 Упыри Скачать торрент  

Упыри
Год выпуска: 2019
Страна: Беларусь
Жанр: Ужасы
Продолжительность: 01:20:00
Перевод: Не требуется
Субтитры: отсутствуют

Режиссер: Максим Сирый, Андрей Гринько

rating

В ролях: Вадим Галыгин, Александр Старченко, Тамара Муженко, Анастасия Васильева, Анастасия Филиппова, Андрей Карако

Описание: Компания молодых людей попадает в лесную глубинку на тайное озеро и сталкивается там с мистическим ужасом, который раз в году рождается в Купальскую ночь.

Качество: WEB-DL 1080p
Формат: MKV

Видео: MPEG-4 AVC, 5010 Кбит/с, 1920x800, 24 кадр/с
Аудио: 48.0 kHz, AC3 Dolby Digital, 2/0 (L,R) ch, ~ 192 kbps
скриншот  скриншот  скриншот  скриншот  

Общее
Уникальный идентификатор : 178342501421876729777921286596743895124 (0x862B8431C6D333D1B065663D07639854)
Полное имя : C:\Upyri.2019.WEB-DL.(1080p).ExKinoRay.mkv
Формат : Matroska
Версия формата : Version 2
Размер файла : 2,97 Гбайт
Продолжительность : 1 ч. 20 м.
Общий поток : 5308 Кбит/сек
Дата кодирования : UTC 2020-05-14 13:51:45
Программа кодирования : mkvmerge v5.8.0 ('No Sleep / Pillow') built on Sep 2 2012 15:37:04
Библиотека кодирования : libebml v1.2.3 + libmatroska v1.3.0

Видео
Идентификатор : 1
Формат : AVC
Формат/Информация : Advanced Video Codec
Профиль формата : High@L4
Настройки формата : CABAC / 4 Ref Frames
Параметр CABAC формата : Да
Параметр RefFrames формата : 4 кадра
Идентификатор кодека : V_MPEG4/ISO/AVC
Продолжительность : 1 ч. 20 м.
Битрейт : 5010 Кбит/сек
Ширина : 1920 пикселей
Высота : 800 пикселей
Соотношение сторон : 2,40:1
Режим частоты кадров : Постоянный
Частота кадров : 24,000 кадра/сек
Цветовое пространство : YUV
Субдискретизация насыщенности : 4:2:0
Битовая глубина : 8 бит
Тип развёртки : Прогрессивная
Бит/(Пиксели*Кадры) : 0.136
Размер потока : 2,80 Гбайт (94%)
Язык : Russian
Default : Да
Forced : Нет

Аудио
Идентификатор : 2
Формат : AC-3
Формат/Информация : Audio Coding 3
Коммерческое название : Dolby Digital
Идентификатор кодека : A_AC3
Продолжительность : 1 ч. 20 м.
Вид битрейта : Постоянный
Битрейт : 192 Кбит/сек
Каналы : 2 канала
ChannelLayout : L R
Частота : 48,0 КГц
Частота кадров : 31,250 кадров/сек (1536 SPF)
Битовая глубина : 16 бит
Метод сжатия : С потерями
Размер потока : 110 Мбайт (4%)
Язык : Russian
ServiceKind/String : Complete Main
Default : Да
Forced : Нет

piratbit.pw



Скачать Упыри через торрент https://a.radikal.ru/a30/2005/79/26bf861dbc09.jpg Скачать фильм Упыри через торрент бесплантно в хорошем качестве Описание: Компания молодых людей попадает в лесную глубинку на тайное озеро и сталкивается там с мистическим ужасом, который раз в году ... 10 10 8
Торрент: Зарегистрирован [2020-05-14 15:07] · скачан: 180 раз
Статус: T временная
Размер: 2.97 GB
Как cкачать? Как скачать Упыри через торрент | qTorrent

% Раздел Тема Автор DL S | L
T Наши новые фильмы 2018-2019 [ 1.09 GB ] Упыри [2019 WEB-DLRip] bober100 Скачать
1 | 0
Зарубежные сериалы [ 1.59 GB ] Чем мы заняты в тени / Реальные упыри / What We Do in the Shadows / Сезон: 2 / Серии: 1-5 из 10 [2020 WEB-DLRip] MVO [NewStudio] bober100 Скачать
2 | 0
Зарубежные сериалы [ 18.25 GB ] Чем мы заняты в тени / Реальные упыри / What We Do in the Shadows / Сезон: 2 / Серии: 1-10 из 10 [2020 WEB-DL 1080p] 2xMVO [Lostfilm NewStudio] bober100 Скачать
1 | 1
Зарубежные сериалы [ 1.93 GB ] Чем мы заняты в тени / Реальные упыри / What We Do in the Shadows / Сезон: 2 / Серии: 1-2 из 10 [2020 WEB-DL 720p] MVO [HDRezka Studio] bober100 Скачать
1 | 0
Зарубежные сериалы [ 18.37 GB ] Чем мы заняты в тени / Реальные упыри / What We Do in the Shadows / Сезон: 1 / Серии: 1-10 из 10 [2019 WEB-DL 1080p] DVO [Кубик в Кубе] bober100 Скачать
1 | 0
Зарубежные сериалы [ 2.87 GB ] Чем мы заняты в тени / Реальные упыри / What We Do in the Shadows / Сезон: 1 / Серии: 1-10 из 10 [2019 WEB-DLRip] DVO [Good People] bober100 Скачать
1 | 0
Зарубежные сериалы [ 16.93 GB ] Чем мы заняты в тени / Реальные упыри / What We Do in the Shadows / Сезон: 1 / Серии: 1-10 из 10 [2019 WEB-DL 1080p] 2xMVO [LostFilm Ozz] bober100 Скачать
1 | 0


Последний раз редактировалось: bober100 (2020-05-14 18:25), всего редактировалось 1 раз

28-11-2019 20:33  

Отключить всю рекламу на сайте

14-05-2020 15:20 Упыри Скачать торрент  

Классный кинчик,кто качать будет?piratbit.pw



14-05-2020 16:06 Упыри Скачать торрент  

тема сисек раскрыта, нет? (только этим в такого рода фильмах сценаристы могут как-то хоть завлечь)...piratbit.pw



14-05-2020 16:06 Упыри Скачать торрент  

Александр1300 писал(а):

Классный кинчик,

у любого сарказма, есть пределы..piratbit.pw



14-05-2020 16:56 Упыри Скачать торрент  

галыгин.этим все сказаноpiratbit.pw



14-05-2020 19:45 Упыри Скачать торрент  

trut писал(а):

галыгин.этим все сказано

не заметил, ну тогда любопытство какое то появилось, ну кто заценил?piratbit.pw



    Дорогой пользователь! Огромная просьба, поблагодарите релизера, оцените раздачу и оставьте свои комментарий, если Вы скачали Упыри через торрент бесплатно! Внесите свою лепту в развитие PiratBit!
    Комментировать посты могут только пользователи прошедшие не сложную регистрацию
    Показать сообщения:    

    Упыри через торрент
    Скачать бесплатно Упыри
    Упыри скачать торрент
    Упыри смотреть онлайн
    Cкачать фильм Упыри бесплатно
    Упыри скачать торрент в хорошем качестве
    Упыри смотреть онлайн бесплатно в хорошем качестве


    Вы не можете начинать темы
    Вы не можете отвечать на сообщения
    Вы не можете редактировать свои сообщения
    Вы не можете удалять свои сообщения
    Вы не можете голосовать в опросах
    Вы не можете прикреплять файлы к сообщениям
    Вы можете скачивать файлы