Ссылка на приватное зеркало нашего сайта всего за 1$. Внимание количество ограничено!!!

2 сезон

iTunes

iTunes

1

iTunes

iTunes

iTunes

WEBRip

iTunes

30
pack

Вам бонус

ВАЖНО

!!Акция!!

Alien_RageХит недели

RePack

Horizon Zero Dawn

ИГРА 18+

pack

RePack

jed

!!Акция!!

Alien_Rage

RePack

fifa19

RePack

Assassins Creed: Odyssey

RePack

NEED FOR SPEED™ PAYBACK

4 сезон

9 сезон

Бесстыжие 9 сезон

Все сериалы

все сериалы на PB.wtf

RePack

FAR CRY 5
  

Шугалей (Денис Нейманд) [2020, Детектив, боевик, приключения, WEB-DL 720p] piratbit.pw

Шугалей через торрент piratbit.pw

Раздают: 2 [ 95 KB/s ]
Размер: 1.96 GB | Добавлен: 4 мес. 15 д. назад | Торрент скачан:109 раз
Скачать  

11-05-2020 02:01 Шугалей Скачать торрент  

Шугалей
Год выпуска: 2020
Страна: Россия, Тунис
Выпущено: «Кино альянс»
Жанр: Детектив, боевик, приключения
Продолжительность: 01:41:42
Перевод: Не требуется
Субтитры: отсутствуют

Режиссер: Денис Нейманд



В ролях: Кирилл Полухин, Олег Абалян, Сергей Яценюк, Олег Метелев, Вячеслав Аркунов, Мохамед Али Бен Джема, Халед Хуисса

Описание: Фильм основан на реальных событиях. Российские социологи, Максим Шугалей и его спутник и переводчик Самер Суэйфан, отправляются в страну, разрываемую на части воинствующими группировками, по официальному приглашению. Их задача — проведение исследования, которое должно было бы положить конец боевым действиям. Однако в ходе работы в их руки попадает информация, которая может дорого стоить «марионеточному» правительству и не должна просочиться за пределы Ливии. В результате похищения русские специалисты оказываются в частной тюрьме и больше года, переживая пытки и унижения, ждут хотя бы официального обвинения. Дипломатические попытки мирно решить вопрос заходят в тупик, и российская сторона начинает готовить спасательную операцию.

Качество: WEB-DL 720p
Формат: MKV

Видео: MPEG-4 AVC, 2600 Кбит/с, 1280x536, 25 кадр/с
Аудио: 48.0 kHz, AC3 Dolby Digital, 2/0 (L,R) ch, ~ 192 kbps
скриншот  скриншот  скриншот  скриншот  

Общее
Уникальный идентификатор : 253974753867775055059424527536593024794 (0xBF11C223D4A69ACF9487BD005F6BB71A)
Полное имя : C:\Shugalei.2020.WEB-DL.(720p).ExKinoRay.mkv
Формат : Matroska
Версия формата : Version 2
Размер файла : 1,96 Гбайт
Продолжительность : 1 ч. 41 м.
Общий поток : 2757 Кбит/сек
Дата кодирования : UTC 2020-05-10 23:51:22
Программа кодирования : mkvmerge v5.8.0 ('No Sleep / Pillow') built on Sep 2 2012 15:37:04
Библиотека кодирования : libebml v1.2.3 + libmatroska v1.3.0

Видео
Идентификатор : 1
Формат : AVC
Формат/Информация : Advanced Video Codec
Профиль формата : High@L4
Настройки формата : CABAC / 4 Ref Frames
Параметр CABAC формата : Да
Параметр RefFrames формата : 4 кадра
Идентификатор кодека : V_MPEG4/ISO/AVC
Продолжительность : 1 ч. 41 м.
Битрейт : 2600 Кбит/сек
Ширина : 1280 пикселей
Высота : 536 пикселей
Соотношение сторон : 2,40:1
Режим частоты кадров : Постоянный
Частота кадров : 25,000 кадров/сек
Цветовое пространство : YUV
Субдискретизация насыщенности : 4:2:0
Битовая глубина : 8 бит
Тип развёртки : Прогрессивная
Бит/(Пиксели*Кадры) : 0.146
Размер потока : 1,78 Гбайт (91%)
Язык : Russian
Default : Да
Forced : Нет

Аудио
Идентификатор : 2
Формат : AC-3
Формат/Информация : Audio Coding 3
Коммерческое название : Dolby Digital
Идентификатор кодека : A_AC3
Продолжительность : 1 ч. 41 м.
Вид битрейта : Постоянный
Битрейт : 192 Кбит/сек
Каналы : 2 канала
ChannelLayout : L R
Частота : 48,0 КГц
Частота кадров : 31,250 кадров/сек (1536 SPF)
Битовая глубина : 16 бит
Метод сжатия : С потерями
Размер потока : 140 Мбайт (7%)
Язык : Russian
ServiceKind/String : Complete Main
Default : Да
Forced : Нет

piratbit.pw



Скачать Шугалей через торрент https://i111.fastpic.ru/big/2020/0502/5e/4c2a19e0d6aa822c80809b00b03bb35e.jpg Скачать фильм Шугалей через торрент бесплантно в хорошем качестве Описание: Фильм основан на реальных событиях. Российские социологи, Максим Шугалей и его спутник и переводчик Самер Суэйфан, отправляются в ... 8.7 10 7
Торрент: Зарегистрирован [2020-05-11 02:01] · скачан: 109 раз
Статус: √ проверено
Размер: 1.96 GB
Как cкачать? Как скачать Шугалей через торрент | qTorrent

% Раздел Тема Автор DL S | L
T Наши фильмы (HD, WEB-DL 720p, 1080p) [ 4.61 GB ] Шугалей 2 [2020 WEB-DL 1080p] bober100 Скачать
3 | 0
Наши фильмы (HD, WEB-DL 720p, 1080p) [ 3.07 GB ] Шугалей 2 [2020 HDTVRip 720p] bober100 Скачать
8 | 0
Наши новые фильмы 2018-2019 [ 2.05 GB ] Шугалей 2 [2020 HDTVRip-AVC] bober100 Скачать
6 | 0
Наши новые фильмы 2018-2019 [ 1.46 GB ] Шугалей 2 [2020 HDTVRip] bober100 Скачать
8 | 1
Наши фильмы (HD, WEB-DL 720p, 1080p) [ 4.18 GB ] Шугалей 2 [2020 HDTV Оригинал] Бумер Скачать
7 | 0
Наши новые фильмы 2018-2019 [ 1.63 GB ] Шугалей 2 [2020 SATRip] Russian Mafia Скачать
9 | 0
Наши фильмы (HD, WEB-DL 720p, 1080p) [ 3.77 GB ] Шугалей [2020 WEB-DL 1080p] bober100 Скачать
8 | 0

28-11-2019 20:33  

Отключить всю рекламу на сайте

    Дорогой пользователь! Огромная просьба, поблагодарите релизера, оцените раздачу и оставьте свои комментарий, если Вы скачали Шугалей через торрент бесплатно! Внесите свою лепту в развитие PiratBit!
    Комментировать посты могут только пользователи прошедшие не сложную регистрацию
    Показать сообщения:    

    Шугалей через торрент
    Скачать бесплатно Шугалей
    Шугалей скачать торрент
    Шугалей смотреть онлайн
    Cкачать фильм Шугалей бесплатно
    Шугалей скачать торрент в хорошем качестве
    Шугалей смотреть онлайн бесплатно в хорошем качестве


    Вы не можете начинать темы
    Вы не можете отвечать на сообщения
    Вы не можете редактировать свои сообщения
    Вы не можете удалять свои сообщения
    Вы не можете голосовать в опросах
    Вы не можете прикреплять файлы к сообщениям
    Вы можете скачивать файлы