Marvel's Avengers Deluxe Edition (супер цена) 159р. Внимание количество ограничено!!!

2 сезон

iTunes

iTunes

1

iTunes

iTunes

iTunes

WEBRip

iTunes

30
pack

Новость дня

ВАЖНО

!!Акция!!

Alien_RageХит недели

RePack

Horizon Zero Dawn

ИГРА 18+

pack

RePack

jed

!!Акция!!

Alien_Rage

RePack

fifa19

RePack

Assassins Creed: Odyssey

RePack

NEED FOR SPEED™ PAYBACK

4 сезон

9 сезон

Бесстыжие 9 сезон

Все сериалы

все сериалы на PB.wtf

RePack

FAR CRY 5
  

Небо измеряется милями (Константин Буслов) [2019, Военный, история, биография, драма, WEB-DL 720p] piratbit.pw

Небо измеряется милями через торрент piratbit.pw

Размер: 1.86 GB | Добавлен: 4 мес. 11 д. назад | Торрент скачан:69 раз
Скачать  

08-05-2020 01:11 Небо измеряется милями Скачать торрент  

Небо измеряется милями
Год выпуска: 2019
Страна: Россия
Студия: RB Production
Жанр: Военный, история, биография, драма
Продолжительность: 01:30:30
Перевод: Не требуется
Субтитры: отсутствуют

Режиссер: Константин Буслов

rating

В ролях: Евгений Стычкин, Марьяна Спивак, Андрей Мерзликин, Максим Битюков, Евгений Пеккер, Сергей Походаев, Алексей Розин, Пётр Кислов, Петар Зекавица, Мария Шумакова, Александр Рапопорт, Сергей Лосев, Александр Хошабаев, Дмитрий Богдан, Евгений Вальц, Игорь Поселенов, Николай Козак, Ася Домская, Адам Булгучев, Тимофей Каратаев, Алексей Овсянников, Сергей Цепов, Сергей Шанин, Максим Иванов (II), Степан Середа, Елизавета Агрова, Леонид Ворон, Кирилл Одоевский

Описание: Он создал самый массовый в мире вертолет Ми-8. Он создал самый мощный транспортный вертолет в мире – Ми-12. Его изобретениями восхищался Игорь Сикорский. Для вертолетной авиации России его фамилия столь же значима, как Королев для космонавтики. Жизнь и судьба выдающегося советского вертолетного конструктора, создателя вертолетов «МИ» Михаила Леонтьевича Миля. Сегодня всем очевидно, что вертолеты – незаменимые аппараты. Но так было не всегда. До середины прошлого столетия многие в СССР не понимали для чего вообще нужны эти странные механизмы. Трудный путь гениального авиаконструктора, десятилетиями преодолевавшего недоверие людей к его идеям, тесно переплетен с драматической историей его жизни. Миль с детства любил небо и на протяжении всей своей непростой жизни шел за мечтой. Оказавшись в больнице, после неудачного испытания самого большого вертолета в мире, Миль подводит итоги сделанного: от первых робких шагов юного изобретателя до основателя советского вертолетостроения, навсегда изменившего мировую авиацию. Позади тяжелые испытания судьбы, борьба за семейное счастье и личные трагедии. Но история конструктора не окончена – ему предстоит создать еще один вертолет, который станет завещанием будущим поколениям.

Качество: WEB-DL 720p
Формат: MKV

Видео: MPEG-4 AVC, 2600 Кбит/с, 1280x690
Аудио: 48 kHz, AC3 Dolby Digital, 3/2 (L,C,R,l,r) + LFE ch, ~384 kbps
скриншот  скриншот  скриншот  скриншот  

Общее
Уникальный идентификатор : 246947471910723838590256864325004354267 (0xB9C85A63BC8E23EF90E96D78CA92E2DB)
Полное имя : C:\Nebo.izmeryaetsya.milyami.2019.WEB-DL.(720p).ExKinoRay.mkv
Формат : Matroska
Версия формата : Version 2
Размер файла : 1,86 Гбайт
Продолжительность : 1 ч. 30 м.
Общий поток : 2942 Кбит/сек
Дата кодирования : UTC 2020-05-07 23:40:37
Программа кодирования : mkvmerge v5.8.0 ('No Sleep / Pillow') built on Sep 2 2012 15:37:04
Библиотека кодирования : libebml v1.2.3 + libmatroska v1.3.0

Видео
Идентификатор : 1
Формат : AVC
Формат/Информация : Advanced Video Codec
Профиль формата : High@L4
Настройки формата : CABAC / 4 Ref Frames
Параметр CABAC формата : Да
Параметр RefFrames формата : 4 кадра
Идентификатор кодека : V_MPEG4/ISO/AVC
Продолжительность : 1 ч. 30 м.
Битрейт : 2600 Кбит/сек
Ширина : 1280 пикселей
Высота : 690 пикселей
Соотношение сторон : 1,85:1
Режим частоты кадров : Постоянный
Частота кадров : 25,000 кадров/сек
Цветовое пространство : YUV
Субдискретизация насыщенности : 4:2:0
Битовая глубина : 8 бит
Тип развёртки : Прогрессивная
Бит/(Пиксели*Кадры) : 0.113
Размер потока : 1,58 Гбайт (85%)
Язык : Russian
Default : Да
Forced : Нет

Аудио
Идентификатор : 2
Формат : AC-3
Формат/Информация : Audio Coding 3
Коммерческое название : Dolby Digital
Идентификатор кодека : A_AC3
Продолжительность : 1 ч. 30 м.
Вид битрейта : Постоянный
Битрейт : 384 Кбит/сек
Каналы : 6 каналов
ChannelLayout : L R C LFE Ls Rs
Частота : 48,0 КГц
Частота кадров : 31,250 кадров/сек (1536 SPF)
Битовая глубина : 16 бит
Метод сжатия : С потерями
Размер потока : 249 Мбайт (13%)
Язык : Russian
ServiceKind/String : Complete Main
Default : Да
Forced : Нет

piratbit.pw
!bober100 писал(а):

Без рекламы.



Скачать Небо измеряется милями через торрент https://a.radikal.ru/a41/2005/f7/da7add6c281b.jpg Скачать фильм Небо измеряется милями через торрент бесплантно в хорошем качестве Описание: Он создал самый массовый в мире вертолет Ми-8. Он создал самый мощный транспортный вертолет в мире – Ми-1 Его изобретениями ... 10 10 4
Торрент: Зарегистрирован [2020-05-08 01:11] · скачан: 69 раз
Статус: T временная
Размер: 1.86 GB
Как cкачать? Как скачать Небо измеряется милями через торрент | qTorrent

% Раздел Тема Автор DL S | L
T Наши новые фильмы 2018-2019 [ 1.46 GB ] Небо измеряется милями [2019 Военный история биография WEB-DLRip] bober100 Скачать
12 | 0
T Наши фильмы (HD, WEB-DL 720p, 1080p) [ 3.48 GB ] Небо измеряется милями [2019 Военный история биография WEB-DL 1080p] bober100 Скачать
1 | 0

28-11-2019 20:33  

Отключить всю рекламу на сайте

    Дорогой пользователь! Огромная просьба, поблагодарите релизера, оцените раздачу и оставьте свои комментарий, если Вы скачали Небо измеряется милями через торрент бесплатно! Внесите свою лепту в развитие PiratBit!
    Комментировать посты могут только пользователи прошедшие не сложную регистрацию
    Показать сообщения:    

    Небо измеряется милями через торрент
    Скачать бесплатно Небо измеряется милями
    Небо измеряется милями скачать торрент
    Небо измеряется милями смотреть онлайн
    Cкачать фильм Небо измеряется милями бесплатно
    Небо измеряется милями скачать торрент в хорошем качестве
    Небо измеряется милями смотреть онлайн бесплатно в хорошем качестве


    Вы не можете начинать темы
    Вы не можете отвечать на сообщения
    Вы не можете редактировать свои сообщения
    Вы не можете удалять свои сообщения
    Вы не можете голосовать в опросах
    Вы не можете прикреплять файлы к сообщениям
    Вы можете скачивать файлы