Marvel's Avengers Deluxe Edition (супер цена) 159р. Внимание количество ограничено!!!

2 сезон

iTunes

iTunes

1

iTunes

iTunes

iTunes

WEBRip

iTunes

30
pack

Новость дня

ВАЖНО

!!Акция!!

Alien_RageХит недели

RePack

Horizon Zero Dawn

ИГРА 18+

pack

RePack

jed

!!Акция!!

Alien_Rage

RePack

fifa19

RePack

Assassins Creed: Odyssey

RePack

NEED FOR SPEED™ PAYBACK

4 сезон

9 сезон

Бесстыжие 9 сезон

Все сериалы

все сериалы на PB.wtf

RePack

FAR CRY 5
  

Порт (Александра Стреляная) [2019, Триллер, драма, WEB-DL 720p] [iTunes] piratbit.pw

Порт через торрент piratbit.pw

Размер: 2.83 GB | Добавлен: 4 мес. 14 д. назад | Торрент скачан:53 раза
Скачать  

07-05-2020 20:40 Порт Скачать торрент  

Порт
Год выпуска: 2019
Страна: Россия
Студия: Kinokompaniya «Invada Film»
Жанр: Триллер, драма
Продолжительность: 01:32:02
Перевод: Не требуется | iTunes
Субтитры: отсутствуют

Режиссер: Александра Стреляная



В ролях: Алексей Гуськов, Мария Боровичева, Лев Семашков, Юрий Борисов, Ирина Вилкова, Владимир Дараганов, Роза Хайруллина, Тимофей Трибунцев, Михаил Евланов, Кирилл Полухин

Описание: Главная героиня Кира попадает в аварию. Отец Киры, тренер по боксу, действует вопреки обстоятельствам и искренне верит, что созданный им тренажер поможет дочери восстановиться. Именно в этот непростой период жизни в зал приходит тренироваться Андрей. Вместе с этим светлым чувством любви в жизнь девушки приходит надежда и события, которых никто не ждал.Главный бой для каждого героя еще впереди. Только неудержимое желание жить и любить может привести героев к победе, через ошибки и откровения, свойственные юности.

Качество: WEB-DL 720p
Формат: MKV

Видео: MPEG-4 AVC, 3930 Кбит/с, 1280x536 (2.40:1), 24.000 fps
Аудио: 48 kHz, AC3 Dolby Digital, 3/2 (L,C,R,l,r) + LFE ch, ~384 kbps
скриншот  скриншот  скриншот  скриншот  

Format : Matroska
Format version : Version 4 / Version 2
File size : 2.83 GiB
Duration : 1 h 32 min
Overall bit rate : 4 401 kb/s
Movie name : .ELEKTRI4KA.UNIONGANG.
Encoded date : UTC 2020-05-07 16:22:17
Writing application : mkvmerge v6.9.1 ('Blue Panther') 32bit built on Apr 18 2014 18:15:44
Writing library : libebml v1.3.0 + libmatroska v1.4.1

Video
ID : 1
Format : AVC
Format/Info : Advanced Video Codec
Format profile : Main@L3.1
Format settings, CABAC : No
Format settings, Reference frames : 2 frames
Codec ID : V_MPEG4/ISO/AVC
Duration : 1 h 32 min
Bit rate : 3 930 kb/s
Width : 1 280 pixels
Height : 536 pixels
Display aspect ratio : 2.40:1
Frame rate mode : Constant
Frame rate : 24.000 FPS
Color space : YUV
Chroma subsampling : 4:2:0
Bit depth : 8 bits
Scan type : Progressive
Bits/(Pixel*Frame) : 0.239
Stream size : 2.53 GiB (89%)
Title : .ELEKTRI4KA.UNIONGANG.
Language : English
Default : Yes
Forced : No
Color range : Limited
Color primaries : BT.709
Transfer characteristics : BT.709
Matrix coefficients : BT.709

Audio
ID : 2
Format : AC-3
Format/Info : Audio Coding 3
Mode extension : CM (complete main)
Format settings, Endianness : Big
Codec ID : A_AC3
Duration : 1 h 32 min
Bit rate mode : Constant
Bit rate : 384 kb/s
Channel(s) : 6 channels
Channel positions : Front: L C R, Side: L R, LFE
Sampling rate : 48.0 kHz
Frame rate : 31.250 FPS (1536 spf)
Bit depth : 16 bits
Compression mode : Lossy
Stream size : 253 MiB (9%)
Title : iTunes
Language : Russian
Default : Yes
Forced : No

Menu
00:00:00.000 : en:Глава 1
00:08:09.125 : en:Глава 2
00:16:11.540 : en:Глава 3
00:24:42.915 : en:Глава 4
00:33:14.997 : en:Глава 5
00:41:24.997 : en:Глава 6
00:49:55.705 : en:Глава 7
00:58:18.788 : en:Глава 8
01:07:44.621 : en:Глава 9
01:15:57.036 : en:Глава 10
01:23:34.118 : en:Глава 11

piratbit.pw



Скачать Порт через торрент https://i5.imageban.ru/out/2020/05/07/2d6b241f8706e06ce6a19550566457b6.png Скачать фильм Порт через торрент бесплантно в хорошем качестве Описание: Главная героиня Кира попадает в аварию. Отец Киры, тренер по боксу, действует вопреки обстоятельствам и искренне верит, что ... 10 10 4
Торрент: Зарегистрирован [2020-05-07 20:40] · скачан: 53 раз
Статус: √ проверено
Размер: 2.83 GB
Как cкачать? Как скачать Порт через торрент | qTorrent

% Раздел Тема Автор DL S | L
Фильмы [HD 720p, 1080p] (Хороший звук DUB, MVO) [ 10.95 GB ] Каратэ-пацан / The Karate Kid [2010 BDRip 1080p] DUB Sub eng + original eng Venxxx Скачать
1 | 0
Классика зарубежного кино [ 1.99 GB ] Большие гонки / The Great Race [1965 мюзикл DVDRip] alexx Скачать
1 | 0
Фильмы [HD 720p, 1080p] (Хороший звук DUB, MVO) [ 4.13 GB ] Спиди Гонщик / Speed Racer [2008 ... BDRip ] M@RCU$ Скачать
1 | 0
Фильмы 2006-2008 [ 1.46 GB ] Репортаж / [Rec] [2007 HDTVRip] DEVI Скачать
1 | 0
Сборники на DVD и Сиквелы [DVDrip, WEB-DLRip, HDrip, BDRip] [ 3.57 GB ] Неоспоримый 123 / Undisputed 123 [2002-2010 DVDRip] serpolina Скачать
1 | 0
Анальный секс [ 90 MB ] Отыгрался на сладкой попке красивой сменки : [2010 All Sex Oral Anal DVDRip] veresk Скачать
1 | 0
Фильмы [HD 720p, 1080p] (Хороший звук DUB, MVO) [ 4.06 GB ] Неоспоримый Обсуждению не подлежит / Undisputed [2002 2006 2010. СпортUPSCALE>HD и HDRip ] demonvideo Скачать
1 | 0

28-11-2019 20:33  

Отключить всю рекламу на сайте

    Дорогой пользователь! Огромная просьба, поблагодарите релизера, оцените раздачу и оставьте свои комментарий, если Вы скачали Порт через торрент бесплатно! Внесите свою лепту в развитие PiratBit!
    Комментировать посты могут только пользователи прошедшие не сложную регистрацию
    Показать сообщения:    

    Порт через торрент
    Скачать бесплатно Порт
    Порт скачать торрент
    Порт смотреть онлайн
    Cкачать фильм Порт бесплатно
    Порт скачать торрент в хорошем качестве
    Порт смотреть онлайн бесплатно в хорошем качестве


    Вы не можете начинать темы
    Вы не можете отвечать на сообщения
    Вы не можете редактировать свои сообщения
    Вы не можете удалять свои сообщения
    Вы не можете голосовать в опросах
    Вы не можете прикреплять файлы к сообщениям
    Вы можете скачивать файлы