1 сезон

1 сезон

iTunes

1

КиноПоиск HD

Кинопоиск HD

iTunes

13

1 сезон

RePack

30

Ultimate

ВАЖНО

ИГРА 18+

pack

RePack

MK11
pack

Легкие деньги

RePack

jed

RePack

fifa19

RePack

RDR2

RePack

NEED FOR SPEED™ PAYBACK

4 сезон

9 сезон

Бесстыжие 9 сезон

Все сериалы

все сериалы на PB.wtf

RePack

FAR CRY 5
  
Magnet ссылка

Счастливой охоты / Happy Hunting (Джо Дайтш, Люсиан Гибсон) [2017 г., Триллер, ужасы, HDRip-AVC] AVO (BadBajo) - ExKinoRay piratbit.pw

Счастливой охоты через торрент piratbit.pw

Раздают: 1 [ 0 KB/s ] Качают: 1 [ 0 KB/s ]
Размер: 1.45 GB | Добавлен: 11 мес. назад | Торрент скачан:21 раз
Скачать  

03-05-2020 23:54 Счастливой охоты Скачать торрент  

Информация о фильме
Название: Счастливой охоты
Оригинальное название: Happy Hunting
Год выпуска: 2017
Жанр: Триллер, ужасы
Выпущено: США, Selective Collective, Waterstone Entertainment
Продолжительность: 01:30:46
Перевод: BadBajo
Озвучивание: Авторское одноголосое (BadBajo)
Режиссер: Джо Дайтш, Люсиан Гибсон
В ролях: Мартин Дингл Уолл, Кен Лэлли, Кенни Вормолд, Коннор Уильямс, Гари Штурм, С.Дж. Бэйкер, Джереми Лосон, Майкл Типпс, Лизель Хэнсон, Кеннет Биллингс

Описание:
Уоррен, алкоголик и наркоман, получает известие о кончине своей подруги, с которой он когда-то встречался. У подруги был ребенок, который, по всей видимости, был его. Уоррен отправляется в Мексику, чтобы решить этот вопрос. По пути он останавливается в небольшом городке. Традиционно в этом городе охотились на буйволов, но когда стада ушли, жители переключились на неблагополучную часть населения.


rating

Формат: MKV
Качество: HDRip-AVC
Видео: 720х296 (2.40:1), 23.976 fps, XviD, ~1828 Kbps, 0.376 bits/pixel
Звук: AC-3, 48.0 KHz, 5.1 ch, 384 Kbps, CBR |
General
Unique ID : 200964679102906445541246484291619625903 (0x973063AACB08CB379927527CF9279BAF)
Complete name : F:Happy.Hunting.2017.AVO.AVC.ExKinoRay.mkv
Format : Matroska
Format version : Version 2
File size : 1.45 GiB
Duration : 1 h 30 min
Overall bit rate : 2 283 kb/s
Movie name : Happy Hunting 2017 from ExKinoRay
Encoded date : UTC 2020-05-03 22:44:26
Writing application : mkvmerge v5.6.0 ('Kenya Kane') built on May 27 2012 16:44:04
Writing library : libebml v1.2.3 + libmatroska v1.3.0
Attachments : poster.jpg

Video
ID : 1
Format : AVC
Format/Info : Advanced Video Codec
Format profile : High@L4.1
Format settings, CABAC : Yes
Format settings, ReFrames : 12 frames
Codec ID : V_MPEG4/ISO/AVC
Duration : 1 h 30 min
Bit rate : 1 897 kb/s
Width : 720 pixels
Height : 296 pixels
Display aspect ratio : 2.40:1
Frame rate mode : Constant
Frame rate : 24.000 FPS
Color space : YUV
Chroma subsampling : 4:2:0
Bit depth : 8 bits
Scan type : Progressive
Bits/(Pixel*Frame) : 0.371
Stream size : 1.18 GiB (81%)
Title : Enigma
Writing library : x264 core 152 r2851 ba24899
Encoding settings : cabac=1 / ref=12 / deblock=1:-2:-2 / analyse=0x3:0x113 / me=umh / subme=10 / psy=1 / psy_rd=1.05:0.10 / mixed_ref=1 / me_range=32 / chroma_me=1 / trellis=2 / 8x8dct=1 / cqm=0 / deadzone=21,11 / fast_pskip=0 / chroma_qp_offset=-3 / threads=9 / lookahead_threads=2 / sliced_threads=0 / nr=0 / decimate=0 / interlaced=0 / bluray_compat=0 / constrained_intra=0 / bframes=10 / b_pyramid=2 / b_adapt=2 / b_bias=0 / direct=3 / weightb=1 / open_gop=0 / weightp=2 / keyint=240 / keyint_min=24 / scenecut=40 / intra_refresh=0 / rc=2pass / mbtree=0 / bitrate=1897 / ratetol=1.0 / qcomp=0.60 / qpmin=0 / qpmax=51 / qpstep=4 / cplxblur=20.0 / qblur=0.5 / ip_ratio=1.40 / pb_ratio=1.30 / aq=1:1.00
Default : Yes
Forced : No

Audio
ID : 2
Format : AC-3
Format/Info : Audio Coding 3
Mode extension : CM (complete main)
Format settings, Endianness : Big
Codec ID : A_AC3
Duration : 1 h 30 min
Bit rate mode : Constant
Bit rate : 384 kb/s
Channel(s) : 6 channels
Channel positions : Front: L C R, Side: L R, LFE
Sampling rate : 48.0 kHz
Frame rate : 31.250 FPS (1536 spf)
Compression mode : Lossy
Stream size : 249 MiB (17%)
Title : AVO (BadBajo)
Language : Russian
Default : Yes
Forced : No

Menu
00:00:00.000 : en:00:00:00.000
00:08:09.917 : en:00:08:09.917
00:16:19.958 : en:00:16:19.958
00:22:47.333 : en:00:22:47.333
00:32:44.250 : en:00:32:44.250
00:41:25.042 : en:00:41:25.042
00:49:35.417 : en:00:49:35.417
00:55:12.542 : en:00:55:12.542
01:04:54.125 : en:01:04:54.125
01:12:45.083 : en:01:12:45.083
01:20:31.917 : en:01:20:31.917
01:28:41.708 : en:01:28:41.708


Релиз от:

Автор релиза: piratbit.pw



Скачать Счастливой охоты через торрент http://s011.radikal.ru/i318/1709/4b/51c23f6632d1.jpg Скачать фильм Счастливой охоты через торрент бесплантно в хорошем качестве Описание: Уоррен, алкоголик и наркоман, получает известие о кончине своей подруги, с которой он когда-то встречался. У подруги был ... 5 10 1
Info! Золотая раздача, скачанное не засчитывается.
Торрент: Зарегистрирован [2020-05-03 23:54] · скачан: 21 раз
Статус: √ проверено
Размер: 1.45 GB
Как cкачать? Как скачать Счастливой охоты через торрент | UTorrent

% Раздел Тема Автор DL S | L
Фильмы с авторской озвучкой [ 1.41 GB ] Счастливой охоты / Happy Hunting [2017 WEB-DLRip] AVO - ExKinoRay Enigma2010 Скачать
2 | 0

28-11-2019 20:33  

Отключить всю рекламу на сайте

    Дорогой пользователь! Огромная просьба, поблагодарите релизера, оцените раздачу и оставьте свои комментарий, если Вы скачали Счастливой охоты через торрент бесплатно! Внесите свою лепту в развитие PiratBit!
    Комментировать посты могут только пользователи прошедшие не сложную регистрацию
    Показать сообщения:    

    Счастливой охоты через торрент
    Скачать бесплатно Счастливой охоты
    Счастливой охоты скачать торрент
    Счастливой охоты смотреть онлайн
    Cкачать фильм Счастливой охоты бесплатно
    Счастливой охоты скачать торрент в хорошем качестве
    Счастливой охоты смотреть онлайн бесплатно в хорошем качестве


    Вы не можете начинать темы
    Вы не можете отвечать на сообщения
    Вы не можете редактировать свои сообщения
    Вы не можете удалять свои сообщения
    Вы не можете голосовать в опросах
    Вы не можете прикреплять файлы к сообщениям
    Вы можете скачивать файлы