Marvel's Avengers Deluxe Edition (супер цена) 159р. Внимание количество ограничено!!!

2 сезон

iTunes

iTunes

1

iTunes

iTunes

iTunes

WEBRip

iTunes

30
pack

Новость дня

ВАЖНО

!!Акция!!

Alien_RageХит недели

RePack

Horizon Zero Dawn

ИГРА 18+

pack

RePack

jed

!!Акция!!

Alien_Rage

RePack

fifa19

RePack

Assassins Creed: Odyssey

RePack

NEED FOR SPEED™ PAYBACK

4 сезон

9 сезон

Бесстыжие 9 сезон

Все сериалы

все сериалы на PB.wtf

RePack

FAR CRY 5
  

Шугалей (Денис Нейманд) [2020, Детектив, боевик, приключения, HDTVRip 720p] piratbit.pw

Шугалей через торрент piratbit.pw

Раздают: 3 [ 13 KB/s ]
Размер: 2.6 GB | Добавлен: 4 мес. 16 д. назад | Торрент скачан:433 раза
Скачать  

02-05-2020 07:39 Шугалей Скачать торрент  

Шугалей
Год выпуска: 2020
Страна: Россия, Тунис
Выпущено: «Кино альянс»
Жанр: Детектив, боевик, приключения
Продолжительность: 01:40:00
Перевод: Не требуется
Субтитры: отсутствуют

Режиссер: Денис Нейманд



В ролях: Кирилл Полухин, Олег Абалян, Сергей Яценюк, Олег Метелев, Вячеслав Аркунов, Мохамед Али Бен Джема, Халед Хуисса

Описание: Фильм основан на реальных событиях. Российские социологи, Максим Шугалей и его спутник и переводчик Самер Суэйфан, отправляются в страну, разрываемую на части воинствующими группировками, по официальному приглашению. Их задача — проведение исследования, которое должно было бы положить конец боевым действиям. Однако в ходе работы в их руки попадает информация, которая может дорого стоить «марионеточному» правительству и не должна просочиться за пределы Ливии. В результате похищения русские специалисты оказываются в частной тюрьме и больше года, переживая пытки и унижения, ждут хотя бы официального обвинения. Дипломатические попытки мирно решить вопрос заходят в тупик, и российская сторона начинает готовить спасательную операцию.

Качество: HDTVRip 720p
Формат: MKV

Видео: 1280х536 (2,40:1), 25 fps, AVC MPEG-4 (x264), High@L4.1 3500 kbps , 0.204 bit/pixel
Аудио: 48.0 kHz, AC3 Dolby Digital, 2/0 (L,R) ch, ~ 192 kbps
скриншот  скриншот  скриншот  скриншот  скриншот  

Общее
Уникальный идентификатор : 234615359886763916095710856172515609928 (0xB0814652DD4A69EDAC7664C76ECBCD48)
Полное имя : C:Shugalei.2020.HDTVRip.(720p).ExKinoRay.mkv
Формат : Matroska
Версия формата : Version 4
Размер файла : 2,60 Гбайт
Продолжительность : 1 ч. 40 м.
Общий поток : 3692 Кбит/сек
Дата кодирования : UTC 2020-05-02 06:59:49
Программа кодирования : mkvmerge v6.9.1 ('Blue Panther') 64bit built on Apr 18 2014 18:23:38
Библиотека кодирования : libebml v1.3.0 + libmatroska v1.4.1

Видео
Идентификатор : 1
Формат : AVC
Формат/Информация : Advanced Video Codec
Профиль формата : High@L4.1
Настройки формата : CABAC / 9 Ref Frames
Параметр CABAC формата : Да
Параметр RefFrames формата : 9 кадров
Идентификатор кодека : V_MPEG4/ISO/AVC
Продолжительность : 1 ч. 40 м.
Битрейт : 3500 Кбит/сек
Ширина : 1280 пикселей
Высота : 536 пикселей
Соотношение сторон : 2,40:1
Режим частоты кадров : Постоянный
Частота кадров : 25,000 кадров/сек
Цветовое пространство : YUV
Субдискретизация насыщенности : 4:2:0
Битовая глубина : 8 бит
Тип развёртки : Прогрессивная
Бит/(Пиксели*Кадры) : 0.204
Размер потока : 2,41 Гбайт (93%)
Библиотека кодирования : x264 core 146 r2538 121396c
Настройки программы : cabac=1 / ref=9 / deblock=1:-3:-3 / analyse=0x3:0x113 / me=umh / subme=11 / psy=1 / psy_rd=1.00:0.20 / mixed_ref=1 / me_range=32 / chroma_me=1 / trellis=2 / 8x8dct=1 / cqm=0 / deadzone=21,11 / fast_pskip=1 / chroma_qp_offset=-3 / threads=24 / lookahead_threads=8 / sliced_threads=0 / nr=0 / decimate=0 / interlaced=0 / bluray_compat=0 / constrained_intra=0 / bframes=10 / b_pyramid=2 / b_adapt=2 / b_bias=0 / direct=3 / weightb=1 / open_gop=0 / weightp=2 / keyint=250 / keyint_min=25 / scenecut=40 / intra_refresh=0 / rc_lookahead=60 / rc=2pass / mbtree=1 / bitrate=3500 / ratetol=1.0 / qcomp=0.60 / qpmin=0 / qpmax=69 / qpstep=4 / cplxblur=20.0 / qblur=0.5 / vbv_maxrate=14000 / vbv_bufsize=14000 / nal_hrd=none / filler=0 / ip_ratio=1.40 / aq=3:1.40
Default : Нет
Forced : Нет
Цветовой диапазон : Limited
Основные цвета : BT.709
Характеристики трансфера : BT.709
Коэффициенты матрицы : BT.709

Аудио
Идентификатор : 2
Формат : AC-3
Формат/Информация : Audio Coding 3
Коммерческое название : Dolby Digital
Идентификатор кодека : A_AC3
Продолжительность : 1 ч. 40 м.
Вид битрейта : Постоянный
Битрейт : 192 Кбит/сек
Каналы : 2 канала
ChannelLayout : L R
Частота : 48,0 КГц
Частота кадров : 31,250 кадров/сек (1536 SPF)
Битовая глубина : 16 бит
Метод сжатия : С потерями
Размер потока : 139 Мбайт (5%)
Язык : Russian
ServiceKind/String : Complete Main
Default : Да
Forced : Да

piratbit.pw



Скачать Шугалей через торрент https://i111.fastpic.ru/big/2020/0502/5e/4c2a19e0d6aa822c80809b00b03bb35e.jpg Скачать фильм Шугалей через торрент бесплантно в хорошем качестве Описание: Фильм основан на реальных событиях. Российские социологи, Максим Шугалей и его спутник и переводчик Самер Суэйфан, отправляются в ... 8.6 10 14
Торрент: Зарегистрирован [2020-05-02 07:39] · скачан: 433 раз
Статус: √ проверено
Размер: 2.6 GB
Как cкачать? Как скачать Шугалей через торрент | qTorrent

% Раздел Тема Автор DL S | L
Наши фильмы (HD, WEB-DL 720p, 1080p) [ 3.07 GB ] Шугалей 2 [2020 HDTVRip 720p] bober100 Скачать
6 | 0
Наши новые фильмы 2018-2019 [ 2.05 GB ] Шугалей 2 [2020 HDTVRip-AVC] bober100 Скачать
7 | 0
Наши новые фильмы 2018-2019 [ 1.46 GB ] Шугалей 2 [2020 HDTVRip] bober100 Скачать
10 | 0
Наши фильмы (HD, WEB-DL 720p, 1080p) [ 4.18 GB ] Шугалей 2 [2020 HDTV Оригинал] Бумер Скачать
8 | 1
Наши новые фильмы 2018-2019 [ 1.63 GB ] Шугалей 2 [2020 SATRip] Russian Mafia Скачать
7 | 0
Наши фильмы (HD, WEB-DL 720p, 1080p) [ 3.77 GB ] Шугалей [2020 WEB-DL 1080p] bober100 Скачать
9 | 0
Наши фильмы (HD, WEB-DL 720p, 1080p) [ 1.96 GB ] Шугалей [2020 WEB-DL 720p] bober100 Скачать
2 | 0

28-11-2019 20:33  

Отключить всю рекламу на сайте

03-05-2020 08:26 Шугалей Скачать торрент  

Экранка с телевизора чтоли? piratbit.pw



    Дорогой пользователь! Огромная просьба, поблагодарите релизера, оцените раздачу и оставьте свои комментарий, если Вы скачали Шугалей через торрент бесплатно! Внесите свою лепту в развитие PiratBit!
    Комментировать посты могут только пользователи прошедшие не сложную регистрацию
    Показать сообщения:    

    Шугалей через торрент
    Скачать бесплатно Шугалей
    Шугалей скачать торрент
    Шугалей смотреть онлайн
    Cкачать фильм Шугалей бесплатно
    Шугалей скачать торрент в хорошем качестве
    Шугалей смотреть онлайн бесплатно в хорошем качестве


    Вы не можете начинать темы
    Вы не можете отвечать на сообщения
    Вы не можете редактировать свои сообщения
    Вы не можете удалять свои сообщения
    Вы не можете голосовать в опросах
    Вы не можете прикреплять файлы к сообщениям
    Вы можете скачивать файлы