2 сезон

iTunes

WEBRip

1

2 сезон

iTunes

1 сезон

1 сезон

RePack

30

Новинка

ВАЖНО

ИГРА 18+

pack

RePack

MK11
pack

Легкие деньги

RePack

jed

RePack

fifa19

RePack

RDR2

RePack

NEED FOR SPEED™ PAYBACK

4 сезон

9 сезон

Бесстыжие 9 сезон

Все сериалы

все сериалы на PB.wtf

RePack

FAR CRY 5

Anonymous, доброе утро, мы не успеваем собрать деньги на оплату серверов за февраль, помогите нам пожалуйста в это трудное время. В качестве благодарности мы отключим Вам всю рекламу на сайте (укажите свой ник в строку Ваше имя)!

×
  
Magnet ссылка

Шугалей (Денис Нейманд) [2020, детектив, приключения , SATRip-AVC] piratbit.pw

Шугалей через торрент piratbit.pw

Размер: 1.4 GB | Добавлен: 9 мес. назад | Торрент скачан:281 раз
Скачать  

01-05-2020 14:40 Шугалей Скачать торрент  

Шугалей

Год выпуска: 2019
Страна: Россия | Тунис | Кино альянс
Жанр: детектив, приключения
Продолжительность: 01:40:52
Субтитры: нет
Режиссёр: Денис Нейманд

В ролях:Кирилл Полухин, Олег Абалян, Сергей Яценюк, Олег Метелев, Халед Хуисса, Мохамед Али Бен Джема
Описание:
Российский социолог Максим Шугалей с коллегой и переводчиком Самером Суэйфаном по официальному приглашению отправляются в Ливию — страну, разрываемую на части воинствующими группировками. Им нужно провести исследование, которое может положить конец боевым действиям. В процессе работы им попадают в руки секретные данные, которые могут дорого стоить правительству, а значит, уйти за пределы Ливии они не должны. Чтобы остановить исследователей, их похищают и без официального обвинения отправляют в частную тюрьму, где царят анархия и жестокость. Дипломатические попытки мирно решить вопрос заходят в тупик, и российская сторона начинает готовить спасательную операцию.

Качество видео: SATRip-AVC
Формат: MKV

Видео: MPEG4 Video (H264), 720х292, 25fps,1800 Kbps,bit/pixel 0.342
Аудио : AC3 48000Hz, stereo, 192 kbps,2 ch
Общее
Уникальный идентификатор : 181619996232932655606065269547544568180 (0x88A2BD2A271BD016AA9E800902236174)
Полное имя : F:\Шугалей\Шугалей_rip by_Aleksan55.mkv
Формат : Matroska
Версия формата : Version 2
Размер файла : 1,40 Гбайт
Продолжительность : 1 ч. 40 м.
Общий поток : 1993 Кбит/сек
Дата кодирования : UTC 2020-05-01 14:08:09
Программа кодирования : mkvmerge v7.8.0 ('River Man') 32bit built on Apr 3 2015 12:11:22
Библиотека кодирования : libebml v1.3.1 + libmatroska v1.4.2

Видео
Идентификатор : 1
Формат : AVC
Формат/Информация : Advanced Video Codec
Профиль формата : High@L4.1
Настройки формата : CABAC / 12 Ref Frames
Параметр CABAC формата : Да
Параметр RefFrames формата : 12 кадров
Идентификатор кодека : V_MPEG4/ISO/AVC
Продолжительность : 1 ч. 40 м.
Битрейт : 1800 Кбит/сек
Ширина : 720 пикселей
Высота : 292 пикселя
Соотношение сторон : 2,466
Режим частоты кадров : Постоянный
Частота кадров : 25,000 кадров/сек
Цветовое пространство : YUV
Субдискретизация насыщенности : 4:2:0
Битовая глубина : 8 бит
Тип развёртки : Прогрессивная
Бит/(Пиксели*Кадры) : 0.342
Размер потока : 1,24 Гбайт (88%)
Библиотека кодирования : x264 core 146 r2538 121396c
Настройки программы : cabac=1 / ref=12 / deblock=1:-1:-1 / analyse=0x3:0x133 / me=umh / subme=9 / psy=1 / psy_rd=1.00:0.15 / mixed_ref=0 / me_range=24 / chroma_me=1 / trellis=2 / 8x8dct=1 / cqm=0 / deadzone=21,11 / fast_pskip=0 / chroma_qp_offset=-3 / threads=10 / lookahead_threads=4 / sliced_threads=0 / nr=0 / decimate=0 / interlaced=0 / bluray_compat=0 / constrained_intra=0 / bframes=12 / b_pyramid=2 / b_adapt=2 / b_bias=0 / direct=3 / weightb=1 / open_gop=0 / weightp=2 / keyint=250 / keyint_min=25 / scenecut=40 / intra_refresh=0 / rc_lookahead=40 / rc=2pass / mbtree=1 / bitrate=1800 / ratetol=1.0 / qcomp=0.60 / qpmin=0 / qpmax=69 / qpstep=4 / cplxblur=20.0 / qblur=0.5 / ip_ratio=1.40 / aq=1:1.00
Default : Да
Forced : Нет
Цветовой диапазон : Limited
Основные цвета : BT.601 PAL
Характеристики трансфера : BT.470 System B/G
Коэффициенты матрицы : BT.470 System B/G

Аудио
Идентификатор : 2
Формат : AC-3
Формат/Информация : Audio Coding 3
Коммерческое название : Dolby Digital
Идентификатор кодека : A_AC3
Продолжительность : 1 ч. 40 м.
Вид битрейта : Постоянный
Битрейт : 192 Кбит/сек
Каналы : 2 канала
ChannelLayout : L R
Частота : 48,0 КГц
Частота кадров : 31,250 кадров/сек (1536 SPF)
Метод сжатия : С потерями
Размер потока : 139 Мбайт (10%)
ServiceKind/String : Complete Main
Default : Да
Forced : Нет
piratbit.pw



Скачать Шугалей через торрент http://i111.fastpic.ru/big/2020/0501/a4/394e513b4506dc6d7b73f70438e534a4.jpg Скачать фильм Шугалей через торрент бесплантно в хорошем качестве Описание:Российский социолог Максим Шугалей с коллегой и переводчиком Самером Суэйфаном по официальному приглашению отправляются в Ливию — ... 8.1 10 15
Торрент: Зарегистрирован [2020-05-01 14:40] · скачан: 281 раз
Статус: √ проверено
Размер: 1.4 GB
Как cкачать? Как скачать Шугалей через торрент | UTorrent

% Раздел Тема Автор DL S | L
Наши фильмы (HD, WEB-DL 720p, 1080p) [ 3.07 GB ] Шугалей 2 [2020 HDTVRip 720p] bober100 Скачать
2 | 0
T Наши фильмы (HD, WEB-DL 720p, 1080p) [ 4.09 GB ] Шугалей 2 [2020 WEB-DL 1080p] bober100 Скачать
3 | 0
Наши новые фильмы 2020 - 2021 [ 1.47 GB ] Шугалей 2 [2020 WEB-DLRip] bober100 Скачать
2 | 0
Наши новые фильмы 2020 - 2021 [ 2.05 GB ] Шугалей 2 [2020 HDTVRip-AVC] bober100 Скачать
3 | 0
Наши новые фильмы 2020 - 2021 [ 1.46 GB ] Шугалей 2 [2020 HDTVRip] bober100 Скачать
4 | 0
Наши фильмы (HD, WEB-DL 720p, 1080p) [ 4.18 GB ] Шугалей 2 [2020 HDTV Оригинал] Бумер Скачать
3 | 0
Наши новые фильмы 2020 - 2021 [ 1.63 GB ] Шугалей 2 [2020 SATRip] Russian Mafia Скачать
1 | 0

28-11-2019 20:33  

Отключить всю рекламу на сайте

01-05-2020 17:01 Шугалей Скачать торрент  

Судя по тому как этот фильм по всему рунету рекламировали пригожинские боты, видимо редкостный помет...)piratbit.pw



02-05-2020 09:07 Шугалей Скачать торрент  

Boor писал(а):

Судя по тому как этот фильм по всему рунету рекламировали пригожинские боты, видимо редкостный помет...)

Вас,грёбаных птеродактилей Соловьёвых-Уткиных,надо в дурку закрыть,млять засрали весь инет своей псевдоборьбой.жрут с одной руки,а вы-их шизоиды апологеты везде их помёт с радостью разносите.кулики (с)piratbit.pw



02-05-2020 20:45 Шугалей Скачать торрент  

Нормальный фильм,автору спасибо за труды.piratbit.pw



02-05-2020 20:55 Шугалей Скачать торрент  

Редкая хрень...
Автору спасибо.piratbit.pw



    Дорогой пользователь! Огромная просьба, поблагодарите релизера, оцените раздачу и оставьте свои комментарий, если Вы скачали Шугалей через торрент бесплатно! Внесите свою лепту в развитие PiratBit!
    Комментировать посты могут только пользователи прошедшие не сложную регистрацию
    Показать сообщения:    

    Шугалей через торрент
    Скачать бесплатно Шугалей
    Шугалей скачать торрент
    Шугалей смотреть онлайн
    Cкачать фильм Шугалей бесплатно
    Шугалей скачать торрент в хорошем качестве
    Шугалей смотреть онлайн бесплатно в хорошем качестве


    Вы не можете начинать темы
    Вы не можете отвечать на сообщения
    Вы не можете редактировать свои сообщения
    Вы не можете удалять свои сообщения
    Вы не можете голосовать в опросах
    Вы не можете прикреплять файлы к сообщениям
    Вы можете скачивать файлы