1 сезон

1 сезон

iTunes

1

КиноПоиск HD

Кинопоиск HD

iTunes

13

1 сезон

RePack

30

Ultimate

ВАЖНО

ИГРА 18+

pack

RePack

MK11
pack

Легкие деньги

RePack

jed

RePack

fifa19

RePack

RDR2

RePack

NEED FOR SPEED™ PAYBACK

4 сезон

9 сезон

Бесстыжие 9 сезон

Все сериалы

все сериалы на PB.wtf

RePack

FAR CRY 5
  
Magnet ссылка

Очевидец / Eyewitness (Питер Йетс) [1981 г., триллер, детектив, мелодрама, BDRip] 2xAVO (Горчаков, Либергал) piratbit.pw

Очевидец через торрент piratbit.pw

Размер: 2.06 GB | Добавлен: 11 мес. назад | Торрент скачан:4 раза
Скачать  

01-05-2020 09:48 Очевидец Скачать торрент  

Очевидец / Eyewitness
Год выпуска: 1981

Страна: США

Жанр: Триллер, детектив, мелодрама

Продолжительность: 01:42:08

Перевод: Авторский (одноголосый)

Режиссер: Питер Йетс

rating

В ролях: Уильям Хёрт, Сигурни Уивер, Кристофер Пламмер, Джеймс Вудс, Айрин Уорт, Кеннет МакМиллан, Памела Рид, Альберт Полсен, Стивен Хилл, Морган Фримен

Описание: Скромный Нью-Йоркский уборщик Дэррил Дивер тайно и безнадёжно влюблён в богатую, высокомерную тележурналистку Тони. Его жизнь круто меняется, когда однажды он обнаруживает тело убитого высокопоставленного политика. Молодой человек решает прикинуться, что был очевидцем преступления, лишь для того, чтобы наконец-то познакомиться с недосягаемой красавицей. Однако, как только план Дэррила по охмурению Тони начинает срабатывать, он понимает, что навлёк на обоих смертельную опасность. Поскольку убийцы, желающие избавиться от ненужных свидетелей, тоже поверили в его липовую историю
Качество: BDRip
Формат: AVI
Видео: XviD, 2220 Кбит/с, 720x384
Аудио#1: Русский, AC3, 2 ch, 192 Кбит/сек - AVO (Василий Горчаков)
Аудио#2: Русский, AC3, 2 ch, 224 Кбит/сек - AVO (Григорий Либергал)
Аудио#3: Английский, AC-3, 2 ch, 224 Кбит/с
Видео
Идентификатор : 0
Формат : MPEG-4 Visual
Профиль формата : Advanced Simple@L5
Настройки формата : BVOP2 / Custom Matrix
Параметр BVOP формата : 2
Параметр QPel формата : Нет
Параметр GMC формата : Без точки перехода
Параметр матрицы формата : Выборочная
Идентификатор кодека : XVID
Идентификатор кодека/Подсказка : XviD
Продолжительность : 1 ч. 42 м.
Битрейт : 2220 Кбит/сек
Ширина : 720 пикселей
Высота : 384 пикселя
Соотношение сторон : 1,85:1
Частота кадров : 23,976 (24000/1001) кадра/сек
Цветовое пространство : YUV
Субдискретизация насыщенности : 4:2:0
Битовая глубина : 8 бит
Тип развёртки : Прогрессивная
Метод сжатия : С потерями
Бит/(Пиксели*Кадры) : 0.335
Размер потока : 1,58 Гбайт (77%)
Библиотека кодирования : XviD 73

Аудио #1
Идентификатор : 1
Формат : AC-3
Формат/Информация : Audio Coding 3
Коммерческое название : Dolby Digital
Идентификатор кодека : 2000
Продолжительность : 1 ч. 42 м.
Вид битрейта : Постоянный
Битрейт : 192 Кбит/сек
Каналы : 2 канала
ChannelLayout : L R
Частота : 48,0 КГц
Частота кадров : 31,250 кадров/сек (1536 SPF)
Битовая глубина : 16 бит
Метод сжатия : С потерями
Размер потока : 140 Мбайт (7%)
Выравнивание : Разделение по промежуткам
Продолжительность промежутка : 42 мс. (1,00 видеокадр)
Время предзагрузки промежутка : 500 мс.
ServiceKind/String : Complete Main

Аудио #2
Идентификатор : 2
Формат : AC-3
Формат/Информация : Audio Coding 3
Коммерческое название : Dolby Digital
Идентификатор кодека : 2000
Продолжительность : 1 ч. 42 м.
Вид битрейта : Постоянный
Битрейт : 224 Кбит/сек
Каналы : 2 канала
ChannelLayout : L R
Частота : 48,0 КГц
Частота кадров : 31,250 кадров/сек (1536 SPF)
Битовая глубина : 16 бит
Метод сжатия : С потерями
Размер потока : 164 Мбайт (8%)
Выравнивание : Разделение по промежуткам
Продолжительность промежутка : 42 мс. (1,00 видеокадр)
Время предзагрузки промежутка : 500 мс.
ServiceKind/String : Complete Main

Аудио #3
Идентификатор : 3
Формат : AC-3
Формат/Информация : Audio Coding 3
Коммерческое название : Dolby Digital
Идентификатор кодека : 2000
Продолжительность : 1 ч. 42 м.
Вид битрейта : Постоянный
Битрейт : 224 Кбит/сек
Каналы : 2 канала
ChannelLayout : L R
Частота : 48,0 КГц
Частота кадров : 31,250 кадров/сек (1536 SPF)
Битовая глубина : 16 бит
Метод сжатия : С потерями
Размер потока : 164 Мбайт (8%)
Выравнивание : Разделение по промежуткам
Продолжительность промежутка : 42 мс. (1,00 видеокадр)
Время предзагрузки промежутка : 500 мс.
ServiceKind/String : Complete Main

скриншот   скриншот   скриншот   скриншот  

piratbit.pw



Скачать Очевидец через торрент https://pic1.kartinco.top/images/12/ymbxx.jpg Скачать фильм Очевидец через торрент бесплантно в хорошем качестве Описание: Скромный Нью-Йоркский уборщик Дэррил Дивер тайно и безнадёжно влюблён в богатую, высокомерную тележурналистку Тони. Его жизнь ... 10 10 1
Торрент: Зарегистрирован [2020-05-01 09:48] · скачан: 4 раз
Статус: √ проверено
Размер: 2.06 GB
Как cкачать? Как скачать Очевидец через торрент | UTorrent

28-11-2019 20:33  

Отключить всю рекламу на сайте

    Дорогой пользователь! Огромная просьба, поблагодарите релизера, оцените раздачу и оставьте свои комментарий, если Вы скачали Очевидец через торрент бесплатно! Внесите свою лепту в развитие PiratBit!
    Комментировать посты могут только пользователи прошедшие не сложную регистрацию
    Показать сообщения:    

    Очевидец через торрент
    Скачать бесплатно Очевидец
    Очевидец скачать торрент
    Очевидец смотреть онлайн
    Cкачать фильм Очевидец бесплатно
    Очевидец скачать торрент в хорошем качестве
    Очевидец смотреть онлайн бесплатно в хорошем качестве


    Вы не можете начинать темы
    Вы не можете отвечать на сообщения
    Вы не можете редактировать свои сообщения
    Вы не можете удалять свои сообщения
    Вы не можете голосовать в опросах
    Вы не можете прикреплять файлы к сообщениям
    Вы можете скачивать файлы