Ссылка на приватное зеркало нашего сайта всего за 1$. Внимание количество ограничено!!!

2 сезон

iTunes

1 сезон

1

iTunes

iTunes

iTunes

1 сезон

RePack

30

ИГРА 18+

pack

ВАЖНО

!!Акция!!

Alien_RageХит недели

RePack

MK11
pack

Забери бонус

RePack

jed

!!Акция!!

Alien_Rage

RePack

fifa19

RePack

Assassins Creed: Odyssey

RePack

NEED FOR SPEED™ PAYBACK

4 сезон

9 сезон

Бесстыжие 9 сезон

Все сериалы

все сериалы на PB.wtf

RePack

FAR CRY 5
  

Пираты кровавой реки / The Pirates of Blood River (Джон Джиллинг) [1962, Боевик, триллер, драма, мелодрама, приключения, BDRip 720p, Профессиональный (многоголосый)] от ExKinoRay piratbit.pw

Пираты кровавой реки через торрент piratbit.pw

Размер: 4.49 GB | Добавлен: 5 мес. назад | Торрент скачан:8 раз
Скачать  

30-04-2020 08:37 Пираты кровавой реки Скачать торрент  

Пираты кровавой реки / The Pirates of Blood River
Год выпуска: 1962
Страна: Великобритания
Жанр: Боевик, триллер, драма, мелодрама, приключения
Продолжительность: 01:26:58
Перевод: Профессиональный (многоголосый)
Субтитры: Английские

Режиссер: Джон Джиллинг

Премьера в мире: 9 мая 1962

rating

В ролях: Кристофер Ли, Кервин Мэтьюз, Гленн Корбетт, Питер Арне, Марла Ланди, Оливер Рид, Эндрю Кейр, Майкл Риппер, Дэвид Лодж, Дэннис Ватерман, Джеролд Уэллс, Джон Беннет, Десмонд Ллевелин, Дэнис Шоу, Джек Стюарт, Дайан Обри, Ричард Беннетт, Рональд Блэкман, Джон Коллин, Мари Деверо, Дон Леви, Майкл Малкастер, Майкл Пик, Джон Роден

Описание: Капитан морских разбойников Ла Рош уверен, что в деревне Джонатана находятся некие сокровища, и хочет, чтобы юноша привел его к ним. Но сам изгнанник даже не догадывается о том, что настоящее сокровище деревни — статуя его дедушки, на самом деле сделанная из чистого золота.

Доп. информация: Профессиональный многоголосый (5-й канал СПб)

Качество: BDRip 720p
Формат: MKV
Видео кодек: MPEG4
Аудио кодек: AC3
Видео: 7000 Кбит/с, 1280x546, 23.976 кадра/сек
Аудио#1: Русский (AC3, 1 ch, 192 Кбит/с, 48 КГц)
Аудио#2: Английский (AC3, 1 ch, 192 Кбит/с, 48 КГц)
Релиз от:
x264 [info]: profile High, level 4.1
x264 [info]: frame I:1001 Avg QP:17.55 size:140515
x264 [info]: frame P:27312 Avg QP:20.05 size: 62516
x264 [info]: frame B:96794 Avg QP:21.25 size: 28078
-----
Общее
Уникальный идентификатор : 244504148581388194619596623505461694723 (0xB7F1C93FAEED2DEE8F711B02CBBD5103)
Полное имя : D:\ExKinoRay\Pirates.Blood.River.1962.BDRip720p.ExKinoRay.mkv
Формат : Matroska
Версия формата : Version 2
Размер файла : 4,49 Гбайт
Продолжительность : 1 ч. 26 м.
Общий поток : 7386 Кбит/сек
Дата кодирования : UTC 2020-04-30 04:50:40
Программа кодирования : mkvmerge v7.8.0 ('River Man') 32bit built on Apr 3 2015 12:11:22
Библиотека кодирования : libebml v1.3.1 + libmatroska v1.4.2

Видео
Идентификатор : 1
Формат : AVC
Формат/Информация : Advanced Video Codec
Профиль формата : High@L4.1
Настройки формата : CABAC / 12 Ref Frames
Параметр CABAC формата : Да
Параметр RefFrames формата : 12 кадров
Идентификатор кодека : V_MPEG4/ISO/AVC
Продолжительность : 1 ч. 26 м.
Битрейт : 7000 Кбит/сек
Ширина : 1280 пикселей
Высота : 546 пикселей
Соотношение сторон : 2,35:1
Режим частоты кадров : Постоянный
Частота кадров : 23,976 (24000/1001) кадра/сек
Цветовое пространство : YUV
Субдискретизация насыщенности : 4:2:0
Битовая глубина : 8 бит
Тип развёртки : Прогрессивная
Бит/(Пиксели*Кадры) : 0.418
Размер потока : 4,16 Гбайт (93%)
Библиотека кодирования : x264 core 152 r2851 ba24899
Настройки программы : cabac=1 / ref=12 / deblock=1:-3:-2 / analyse=0x3:0x113 / me=umh / subme=10 / psy=1 / psy_rd=1.00:0.10 / mixed_ref=1 / me_range=32 / chroma_me=1 / trellis=2 / 8x8dct=1 / cqm=0 / deadzone=21,11 / fast_pskip=0 / chroma_qp_offset=-3 / threads=6 / lookahead_threads=1 / sliced_threads=0 / nr=0 / decimate=0 / interlaced=0 / bluray_compat=0 / constrained_intra=0 / bframes=12 / b_pyramid=2 / b_adapt=2 / b_bias=0 / direct=3 / weightb=1 / open_gop=0 / weightp=2 / keyint=240 / keyint_min=23 / scenecut=40 / intra_refresh=0 / rc=2pass / mbtree=0 / bitrate=7000 / ratetol=1.0 / qcomp=0.60 / qpmin=0 / qpmax=69 / qpstep=4 / cplxblur=20.0 / qblur=0.5 / ip_ratio=1.40 / pb_ratio=1.30 / aq=3:1.00
Язык : English
Default : Да
Forced : Нет
Цветовой диапазон : Limited
Основные цвета : BT.709
Характеристики трансфера : BT.709
Коэффициенты матрицы : BT.709

Аудио #1
Идентификатор : 2
Формат : AC-3
Формат/Информация : Audio Coding 3
Коммерческое название : Dolby Digital
Идентификатор кодека : A_AC3
Продолжительность : 1 ч. 26 м.
Вид битрейта : Постоянный
Битрейт : 192 Кбит/сек
Каналы : 1 канал
Channel layout : C
Частота : 48,0 КГц
Частота кадров : 31,250 кадров/сек (1536 SPF)
Битовая глубина : 16 бит
Метод сжатия : С потерями
Размер потока : 119 Мбайт (3%)
Язык : Russian
ServiceKind/String : Complete Main
Default : Да
Forced : Нет

Аудио #2
Идентификатор : 3
Формат : AC-3
Формат/Информация : Audio Coding 3
Коммерческое название : Dolby Digital
Идентификатор кодека : A_AC3
Продолжительность : 1 ч. 26 м.
Вид битрейта : Постоянный
Битрейт : 192 Кбит/сек
Каналы : 1 канал
Channel layout : C
Частота : 48,0 КГц
Частота кадров : 31,250 кадров/сек (1536 SPF)
Битовая глубина : 16 бит
Метод сжатия : С потерями
Размер потока : 119 Мбайт (3%)
Язык : English
ServiceKind/String : Complete Main
Default : Нет
Forced : Нет

Текст
Идентификатор : 4
Формат : UTF-8
Идентификатор кодека : S_TEXT/UTF8
Идентификатор кодека/Информация : UTF-8 Plain Text
Язык : English
Default : Нет
Forced : Нет

Меню
00:00:00.000 : en:Chapter 1
00:08:36.516 : en:Chapter 2
00:17:34.512 : en:Chapter 3
00:24:53.367 : en:Chapter 4
00:33:27.380 : en:Chapter 5
00:43:40.910 : cs:Chapter 6
00:49:38.058 : en:Chapter 7
01:01:49.331 : en:Chapter 8
01:08:57.258 : en:Chapter 9
01:18:25.701 : en:Chapter 10

piratbit.pw



Скачать Пираты кровавой реки через торрент http://d.radikal.ru/d40/2004/22/22135c5ef60a.jpg Скачать фильм Пираты кровавой реки через торрент бесплантно в хорошем качестве Описание: Капитан морских разбойников Ла Рош уверен, что в деревне Джонатана находятся некие сокровища, и хочет, чтобы юноша привел его к ... 5 10 1
Info! Золотая раздача, скачанное не засчитывается.
Торрент: Зарегистрирован [2020-04-30 08:37] · скачан: 8 раз
Статус: √ проверено
Размер: 4.49 GB
Как cкачать? Как скачать Пираты кровавой реки через торрент | qTorrent

28-11-2019 20:33  

Отключить всю рекламу на сайте

    Дорогой пользователь! Огромная просьба, поблагодарите релизера, оцените раздачу и оставьте свои комментарий, если Вы скачали Пираты кровавой реки через торрент бесплатно! Внесите свою лепту в развитие PiratBit!
    Комментировать посты могут только пользователи прошедшие не сложную регистрацию
    Показать сообщения:    

    Пираты кровавой реки через торрент
    Скачать бесплатно Пираты кровавой реки
    Пираты кровавой реки скачать торрент
    Пираты кровавой реки смотреть онлайн
    Cкачать фильм Пираты кровавой реки бесплатно
    Пираты кровавой реки скачать торрент в хорошем качестве
    Пираты кровавой реки смотреть онлайн бесплатно в хорошем качестве


    Вы не можете начинать темы
    Вы не можете отвечать на сообщения
    Вы не можете редактировать свои сообщения
    Вы не можете удалять свои сообщения
    Вы не можете голосовать в опросах
    Вы не можете прикреплять файлы к сообщениям
    Вы можете скачивать файлы