Ссылка на приватное зеркало нашего сайта всего за 1$. Внимание количество ограничено!!!

2 сезон

iTunes

iTunes

1

iTunes

iTunes

iTunes

WEBRip

iTunes

30
pack

Вам бонус

ВАЖНО

!!Акция!!

Alien_RageХит недели

RePack

Horizon Zero Dawn

ИГРА 18+

pack

RePack

jed

!!Акция!!

Alien_Rage

RePack

fifa19

RePack

Assassins Creed: Odyssey

RePack

NEED FOR SPEED™ PAYBACK

4 сезон

9 сезон

Бесстыжие 9 сезон

Все сериалы

все сериалы на PB.wtf

RePack

FAR CRY 5
  

Счастье в конверте (Светлана Суханова) [2020, Семейный, мелодрама, WEB-DL 1080p] [iTunes] piratbit.pw

Счастье в конверте через торрент piratbit.pw

Раздают: 43 [ 55 KB/s ] Качают: 1 [ 328 KB/s ]
Размер: 3.42 GB | Добавлен: 4 мес. 26 д. назад | Торрент скачан:151 раз
Скачать  

30-04-2020 06:45 Счастье в конверте Скачать торрент  

Счастье в конверте
Год выпуска: 2020
Страна: Россия
Выпущено: ОО "Народное кино", Кинокомпания "Интеграция"
Жанр: Семейный, мелодрама
Продолжительность: 01:38:02
Перевод: Не требуется | iTunes
Субтитры: отсутствуют

Режиссер: Светлана Суханова



В ролях: Фёдор Лещев, Ефим Каменецкий, Татьяна Самарина, Евгения Глотова, Залим Мирзоев, Виктор Куклин, Эра Зиганшина, Юлия Рудина, Варвара Гусинская, Евгений Капитонов

Описание: Три удивительные истории о любви и дружбе, о вере в мечту и связи поколений, о том, как не предавать себя и оставаться человеком в любой жизненной ситуации.В век технологий люди привыкли спешить, бежать, зарабатывать, забывая при этом о главном - о себе и своих настоящих желаниях. Нам кажется, что мы станем счастливее как только у нас появится новая машина или высокая зарплата. А все значительно проще - секрет счастья скрыт в душе каждого человека: в умении верить в чудо, дружить, любить, быть отважным, следовать за своей мечтой!

Качество: WEB-DL 1080p
Формат: MKV

Видео: MPEG-4 AVC, 4606 Кбит/с, 1920x818, 25.000 fps
Аудио: 48 kHz, AC3 Dolby Digital, 3/2 (L,C,R,l,r) + LFE ch, ~384 kbps
скриншот  скриншот  скриншот  скриншот  

Video
ID : 1
Format : AVC
Format/Info : Advanced Video Codec
Format profile : High@L4
Format settings : CABAC / 5 Ref Frames
Format settings, CABAC : Yes
Format settings, Reference : 5 frames
Codec ID : V_MPEG4/ISO/AVC
Duration : 1 h 38 min
Bit rate : 4 606 kb/s
Width : 1 920 pixels
Height : 818 pixels
Display aspect ratio : 2.35:1
Frame rate mode : Constant
Frame rate : 25.000 FPS
Color space : YUV
Chroma subsampling : 4:2:0
Bit depth : 8 bits
Scan type : Progressive
Bits/(Pixel*Frame) : 0.117
Stream size : 3.15 GiB (92%)
Title : HAPPINESS_V_KONVERTE_2019_WEB-DL_1080p-BLUEBIRD
Language : English
Default : Yes
Forced : No
Color range : Limited
Color primaries : BT.709
Transfer characteristics : BT.709
Matrix coefficients : BT.709

Audio
ID : 2
Format : AC-3
Format/Info : Audio Coding 3
Commercial name : Dolby Digital
Codec ID : A_AC3
Duration : 1 h 38 min
Bit rate mode : Constant
Bit rate : 384 kb/s
Channel(s) : 6 channels
Channel layout : L R C LFE Ls Rs
Sampling rate : 48.0 kHz
Frame rate : 31.250 FPS (1536 SPF)
Compression mode : Lossy
Delay relative to video : -40 ms
Stream size : 269 MiB (8%)
Title : [ORIGINAL] DD 5.1 @ 384 kbps (iTunes)
Language : Russian
Service kind : Complete Main
Default : Yes
Forced : No

Menu
00:00:00.000 : en:Глава 1
00:09:17.480 : en:Глава 2
00:16:38.160 : en:Глава 3
00:21:28.280 : en:Глава 4
00:30:48.280 : en:Глава 5
00:37:55.040 : en:Глава 6
00:44:07.960 : en:Глава 7
00:49:22.440 : en:Глава 8
00:58:32.560 : en:Глава 9
01:04:55.560 : en:Глава 10
01:12:17.600 : en:Глава 11
01:17:25.200 : en:Глава 12
01:23:25.680 : en:Глава 13
01:30:18.800 : en:Глава 14

piratbit.pw



Скачать Счастье в конверте через торрент https://c.radikal.ru/c16/2004/57/004e47b47c1e.png Скачать фильм Счастье в конверте через торрент бесплантно в хорошем качестве Описание: Три удивительные истории о любви и дружбе, о вере в мечту и связи поколений, о том, как не предавать себя и оставаться человеком ... 10 10 10
Торрент: Зарегистрирован [2020-04-30 06:45] · скачан: 151 раз
Статус: √ проверено
Размер: 3.42 GB
Как cкачать? Как скачать Счастье в конверте через торрент | qTorrent

% Раздел Тема Автор DL S | L
Наши новые фильмы 2018-2019 [ 1.38 GB ] Счастье в конверте [2020 WEB-DLRip] bober100 Скачать
4 | 0
Наши новые фильмы 2018-2019 [ 703 MB ] Счастье в конверте [2020 WEB-DLRip] bober100 Скачать
2 | 0

28-11-2019 20:33  

Отключить всю рекламу на сайте

    Дорогой пользователь! Огромная просьба, поблагодарите релизера, оцените раздачу и оставьте свои комментарий, если Вы скачали Счастье в конверте через торрент бесплатно! Внесите свою лепту в развитие PiratBit!
    Комментировать посты могут только пользователи прошедшие не сложную регистрацию
    Показать сообщения:    

    Счастье в конверте через торрент
    Скачать бесплатно Счастье в конверте
    Счастье в конверте скачать торрент
    Счастье в конверте смотреть онлайн
    Cкачать фильм Счастье в конверте бесплатно
    Счастье в конверте скачать торрент в хорошем качестве
    Счастье в конверте смотреть онлайн бесплатно в хорошем качестве


    Вы не можете начинать темы
    Вы не можете отвечать на сообщения
    Вы не можете редактировать свои сообщения
    Вы не можете удалять свои сообщения
    Вы не можете голосовать в опросах
    Вы не можете прикреплять файлы к сообщениям
    Вы можете скачивать файлы