Ссылка на приватное зеркало нашего сайта всего за 1$. Внимание количество ограничено!!!

2 сезон

iTunes

1 сезон

1

iTunes

iTunes

iTunes

1 сезон

RePack

30

ИГРА 18+

pack

ВАЖНО

!!Акция!!

Alien_RageХит недели

RePack

MK11
pack

Забери бонус

RePack

jed

!!Акция!!

Alien_Rage

RePack

fifa19

RePack

Assassins Creed: Odyssey

RePack

NEED FOR SPEED™ PAYBACK

4 сезон

9 сезон

Бесстыжие 9 сезон

Все сериалы

все сериалы на PB.wtf

RePack

FAR CRY 5
  

Призрак рая / Phantom of the Paradise (Брайан Де Пальма) [1974 г., мюзикл, ужасы, фантастика, фэнтези, триллер, комедия, музыка, BDRip AVC] DVO (СПб 5 канал) piratbit.pw

Призрак рая через торрент piratbit.pw

Размер: 2.18 GB | Добавлен: 5 мес. 20 д. назад | Торрент скачан:1 раз
Скачать  

29-04-2020 05:51 Призрак рая Скачать торрент  

Призрак рая / Phantom of the Paradise
Год выпуска: 1974

Страна: США

Жанр: Мюзикл, ужасы, фантастика, фэнтези, триллер, комедия, музыка

Продолжительность: 01:31:37

Перевод: Профессиональный (двухголосый)

Режиссер: Брайан Де Пальма

rating

В ролях: Пол Уильямс, Уильям Финли, Джессика Харпер, Джордж Меммоли, Геррит Грэм, Арчи Хан, Питер Элблинг, Колин Камерон, Дэвид Гарлэнд

Описание: Молодой композитор Уинслоу Лич обвинён в краже музыкального произведения, брошен в тюрьму и оклеветан бессовестным продюсером, Сваном, собственником рая, который продал душу дьяволу в обмен на бессмертие и успех. Сван превращает музыку Уинслоу в рок-оперу, которая сводит композитора с ума. Ему удаётся выбраться из тюрьмы. Теперь Уинслоу становится Призраком и пытается вырвать из когтей Свана молодую певицу Феникс…
Качество: BDRip AVC
Формат: MKV
Видео: MPEG-4 AVC, 2826 Кбит/с, 1024x552, 23.976 Кадр/с
Аудио#1: Русский, AC3, 2 ch, 192 Кбит/сек - DVO (СПб 5 канал)
Аудио#2: Английский, AC-3, 6 ch, 384 Кбит/с
Видео
Идентификатор: 1
Формат: AVC
Формат / Информация: Расширенный видеокодек
Профиль формата: Main@L4.1
Настройки формата: CABAC / 11 Ref Frames
Параметр CABAC формата: Да
Параметр RefFrames формата: 11 кадров
Идентификатор кодека: V_MPEG4 / ISO / AVC
Продолжительность: 1 ч. 31 м.
Битрейт: 2826 Кбит / сек
Ширина: 1024 пикселя
Высота: 552 пикселя
Соотношение сторон: 1,85: 1
Режим частоты кадров: Постоянный
Частота кадров: 23,976 (24000/1001) кадра / сек
Цветовое пространство: YUV
Субдискретизация насыщенности: 4: 2: 0
Битовая глубина: 8 бит
Тип развёртки: Прогрессивная
Бит / (Пиксели * Кадры): 0,209
Размер потока: 1,81 Гбайт (83%)
Заголовок: Phantom.of.the.Paradise.1974.BDRip.AVC
Библиотека кодирования: x264 core 157 r2969 d4099dd
Настройки программы: cabac = 1 / ref = 11 / deblock = 1: -3: -3 / анализ = 0x1: 0x131 / me = ум / subme = 10 / psy = 1 / psy_rd = 1,00: 0,05 / mixed_ref = 1 / me_range = 32 / chroma_me = 1 / trellis = 2 / 8x8dct = 0 / cqm = 0 / мертвая зона = 21,11 / fast_pskip = 0 / chroma_qp_offset = -3 / threads = 3 / lookahead_threads = 1 / sliced_threads = 0 / nr = 0 / decimate = 1 / interlaced = 0 / bluray_compat = 0 / constrained_intra = 0 / bframes = 14 / b_pyramid = 2 / b_adapt = 2 / b_bias = 0 / direct = 3 / weightb = 1 / open_gop = 0 / weightp = 2 / keyint = 240 / keyint_min = 23 / scenecut = 40 / intra_refresh = 0 / rc_lookahead = 40 / rc = 2pass / mbtree = 1 / битрейт = 2826 / ratetol = 1.0 / qcomp = 0,60 / qpmin = 10 / qpmax = 51 / qpstep = 4 / cplxblur = 20,0 / qblur = 0,5 / vbv_maxrate = 50000 / vbv_bufsize = 62500 / nal_hrd = нет / filler = 0 / ip_ratio = 1,40 / aq = 1: 1,00
Язык: английский
По умолчанию: Да
Принудительно: Нет

Аудио # 1
Идентификатор: 2
Формат: AC-3
Формат / Информация: Audio Coding 3
Коммерческое название: Dolby Digital
Идентификатор кодека: A_AC3
Продолжительность: 1 ч. 31 м.
Вид битрейта: Постоянный
Битрейт: 192 Кбит / сек
Каналы: 2 канала
Макет канала: LR
Частота: 48,0 КГц
Частота кадров: 31,250 кадров / сек (1536 SPF)
Битовая глубина: 16 бит
Метод сжатия: С потерями
Размер потока: 126 Мбайт (6%)
Заголовок: DVO - СПб 5 канал
Язык: русский
ServiceKind / String: завершить основной
По умолчанию: Да
Принудительно: Нет

Аудио # 2
Идентификатор: 3
Формат: AC-3
Формат / Информация: Audio Coding 3
Коммерческое название: Dolby Digital
Идентификатор кодека: A_AC3
Продолжительность: 1 ч. 31 м.
Вид битрейта: Постоянный
Битрейт: 384 Кбит / сек
Каналы: 6 каналов
Схема канала: LRC LFE Ls Rs
Частота: 48,0 КГц
Частота кадров: 31,250 кадров / сек (1536 SPF)
Битовая глубина: 16 бит
Метод сжатия: С потерями
Размер потока: 252 Мбайт (11%)
Заголовок: Оригинал
Язык: английский
ServiceKind / String: завершить основной
По умолчанию: Нет
Принудительно: Нет

Меню
00: 00: 00.000: ru: Глава 01
00: 05: 11.144: ru: Глава 02
00: 11: 50.835: ru: Глава 03
00: 21: 23.574: ru: глава 04
00: 25: 42.916: ru: Глава 05
00: 32: 00.710: ru: Глава 06
00: 41: 17.767: ru: Глава 07
00: 50: 28.734: ru: Глава 08
00: 59: 39.785: ru: Глава 09
01: 03: 00.068: ru: Глава 10
01: 14: 15.409: ru: Глава 11
01: 27: 11.393: ru: Глава 12

скриншот   скриншот   скриншот   скриншот   скриншот  

piratbit.pw



Скачать Призрак рая через торрент http://pic1.kartinco.top/images/12/qjdfz.jpg Скачать фильм Призрак рая через торрент бесплантно в хорошем качестве Описание: Молодой композитор Уинслоу Лич обвинён в краже музыкального произведения, брошен в тюрьму и оклеветан бессовестным продюсером, ... 5 10 1
Торрент: Зарегистрирован [2020-04-29 05:51] · скачан: 1 раз
Статус: √ проверено
Размер: 2.18 GB
Как cкачать? Как скачать Призрак рая через торрент | qTorrent

% Раздел Тема Автор DL S | L
Классика зарубежного кино [ 11.24 GB ] Призрак рая / Phantom of the Paradise [1974 музыка BDRip 1080p by msltel] MVO msltel Скачать
1 | 0
Классика зарубежного кино [ 4 GB ] Призрак рая / Phantom of the Paradise [1974 музыка BDRip 720p by msltel] MVO msltel Скачать
1 | 0

28-11-2019 20:33  

Отключить всю рекламу на сайте

    Дорогой пользователь! Огромная просьба, поблагодарите релизера, оцените раздачу и оставьте свои комментарий, если Вы скачали Призрак рая через торрент бесплатно! Внесите свою лепту в развитие PiratBit!
    Комментировать посты могут только пользователи прошедшие не сложную регистрацию
    Показать сообщения:    

    Призрак рая через торрент
    Скачать бесплатно Призрак рая
    Призрак рая скачать торрент
    Призрак рая смотреть онлайн
    Cкачать фильм Призрак рая бесплатно
    Призрак рая скачать торрент в хорошем качестве
    Призрак рая смотреть онлайн бесплатно в хорошем качестве


    Вы не можете начинать темы
    Вы не можете отвечать на сообщения
    Вы не можете редактировать свои сообщения
    Вы не можете удалять свои сообщения
    Вы не можете голосовать в опросах
    Вы не можете прикреплять файлы к сообщениям
    Вы можете скачивать файлы