1 сезон

1 сезон

iTunes

1

КиноПоиск HD

Кинопоиск HD

iTunes

13

1 сезон

RePack

30

Ultimate

ВАЖНО

ИГРА 18+

pack

RePack

MK11
pack

Легкие деньги

RePack

jed

RePack

fifa19

RePack

RDR2

RePack

NEED FOR SPEED™ PAYBACK

4 сезон

9 сезон

Бесстыжие 9 сезон

Все сериалы

все сериалы на PB.wtf

RePack

FAR CRY 5
  
Magnet ссылка

Сторожка / The Lodge (Северин Фиала, Вероника Франц) [2019, Ужасы, триллер, драма, BDRip 720p] AVO [А.Важенин [BadBajo] piratbit.pw

Сторожка через торрент piratbit.pw

Размер: 4.14 GB | Добавлен: 11 мес. назад | Торрент скачан:36 раз
Скачать  

28-04-2020 19:02 Сторожка Скачать торрент  

Сторожка | The Lodge
Год выпуска: 2019
Страна: Великобритания, Канада, США
Студия: FilmNation Entertainment, Hammer Films
Жанр: Ужасы, триллер, драма
Продолжительность: 01:48:18
Перевод: Авторский (одноголосый) |
Субтитры: английские, испанские

Режиссер: Северин Фиала, Вероника Франц

rating


В ролях: Ричард Армитедж, Алисия Сильверстоун, Джейден Мартелл, Райли Кио, Лия МакХью, Ребекка Фолкенберри, Кэтлин Уэллс, Лола Рейд

Описание: Молодая женщина Грейс выходит замуж за журналиста Ричарда, и теперь ей предстоит стать мачехой двоим детям. Чему сами Мия и Эйден не очень-то рады: в отличие от влюбчивого отца они ещё не забыли мать, покончившую с собой после развода. К тому же Грейс — дочь основателя секты, 12 лет назад совершившей массовое самоубийство, поэтому дети считают, что отец променял мать на психопатку. Чтобы Мия и Эйден ближе познакомились с Грейс, Ричард отправляет семейство провести пару дней перед Рождеством в отдаленном от цивилизации доме.

Качество: BDRip 720p
Формат: MKV

Видео: MPEG-4 AVC, 4373 Kбит/с, 1280x690, 23.976 кадр/с
Аудио#1: Русский (АС3, 6 ch, 448 Кбит/с, 48.0 KHz) Aвторский (одноголосый, закадровый) А.Важенин [BadBajo]
Аудио#2: Английский (АС3, 6 ch, 640 Кбит/с, 48.0 KHz)
скриншот  скриншот  скриншот  скриншот  скриншот  

Источник: The.Lodge.2019.720p.BluRay.x264-DRONES
General
Unique ID: 212030611182029713899338410634189414007 (0x9F839C3DF2282D949E8D786693DF1E77)
Complete name: The.Lodge.2019.BDRip.720p.mkv
Format: Matroska
Format version: Version 4
File size: 4.14 GiB
Duration: 1 h 48 min
Overall bit rate: 5 470 kb/s
Encoded date: UTC 2020-04-28 16:56:20
Writing application: mkvmerge v7.1.0 ('Good Love') 64bit built on Jul 27 2014 13:06:55
Writing library: libebml v1.3.0 + libmatroska v1.4.1

Video
ID: 1
Format: AVC
Format/Info: Advanced Video Codec
Format profile: High@L4.1
Format settings: CABAC / 8 Ref Frames
Format settings, CABAC: Yes
Format settings, Reference fra: 8 frames
Codec ID: V_MPEG4/ISO/AVC
Duration: 1 h 48 min
Bit rate: 4 373 kb/s
Width: 1 280 pixels
Height: 690 pixels
Display aspect ratio: 1.85:1
Frame rate mode: Constant
Frame rate: 23.976 (24000/1001) FPS
Color space: YUV
Chroma subsampling: 4:2:0
Bit depth: 8 bits
Scan type: Progressive
Bits/(Pixel*Frame): 0.206
Stream size: 3.31 GiB (80%)
Writing library: x264 core 160 r3000 33f9e14
Encoding settings: cabac=1 / ref=8 / deblock=1:-3:-3 / analyse=0x3:0x133 / me=umh / subme=9 / psy=1 / psy_rd=1.00:0.00 / mixed_ref=1 / me_range=16 / chroma_me=1 / trellis=2 / 8x8dct=1 / cqm=0 / deadzone=21, 11 / fast_pskip=1 / chroma_qp_offset=-2 / threads=22 / lookahead_threads=1 / sliced_threads=0 / nr=0 / decimate=1 / interlaced=0 / bluray_compat=0 / constrained_intra=0 / bframes=3 / b_pyramid=2 / b_adapt=2 / b_bias=0 / direct=3 / weightb=1 / open_gop=0 / weightp=2 / keyint=250 / keyint_min=23 / scenecut=40 / intra_refresh=0 / rc_lookahead=60 / rc=crf / mbtree=1 / crf=16.5 / qcomp=0.60 / qpmin=0 / qpmax=69 / qpstep=4 / ip_ratio=1.40 / aq=1:1.00
Language: English
Default: Yes
Forced: No

Audio #1
ID: 2
Format: AC-3
Format/Info: Audio Coding 3
Commercial name: Dolby Digital
Codec ID: A_AC3
Duration: 1 h 48 min
Bit rate mode: Constant
Bit rate: 448 kb/s
Channel(s): 6 channels
Channel layout: L R C LFE Ls Rs
Sampling rate: 48.0 kHz
Frame rate: 31.250 FPS (1536 SPF)
Compression mode: Lossy
Stream size: 347 MiB (8%)
Title: AVO | А.Важенин [BadBajo]
Language: Russian
Service kind: Complete Main
Default: Yes
Forced: No

Audio #2
ID: 3
Format: AC-3
Format/Info: Audio Coding 3
Commercial name: Dolby Digital
Codec ID: A_AC3
Duration: 1 h 48 min
Bit rate mode: Constant
Bit rate: 640 kb/s
Channel(s): 6 channels
Channel layout: L R C LFE Ls Rs
Sampling rate: 48.0 kHz
Frame rate: 31.250 FPS (1536 SPF)
Compression mode: Lossy
Stream size: 496 MiB (12%)
Language: English
Service kind: Complete Main
Default: No
Forced: No

Text #1
ID: 4
Format: UTF-8
Codec ID: S_TEXT/UTF8
Codec ID/Info: UTF-8 Plain Text
Duration: 1 h 40 min
Bit rate: 28 b/s
Count of elements: 879
Stream size: 20.7 KiB (0%)
Language: English
Default: No
Forced: No

Text #2
ID: 5
Format: PGS
Muxing mode: zlib
Codec ID: S_HDMV/PGS
Codec ID/Info: Picture based subtitle format used on BDs/HD-DVDs
Duration: 1 h 48 min
Bit rate: 6 684 b/s
Count of elements: 2522
Stream size: 5.17 MiB (0%)
Title: English SDH
Language: English
Default: No
Forced: No

Text #3
ID: 6
Format: UTF-8
Codec ID: S_TEXT/UTF8
Codec ID/Info: UTF-8 Plain Text
Duration: 1 h 40 min
Bit rate: 31 b/s
Count of elements: 915
Stream size: 23.7 KiB (0%)
Language: Spanish
Default: No
Forced: No

Menu
00:00:00.000: en:Chapter 01
00:12:07.894: en:Chapter 02
00:23:59.063: en:Chapter 03
00:35:26.875: en:Chapter 04
00:47:47.490: en:Chapter 05
00:59:46.875: en:Chapter 06
01:17:27.768: en:Chapter 07
01:42:00.948: en:Chapter 08

piratbit.pw



Скачать Сторожка через торрент http://d.radikal.ru/d32/2004/4e/36f7c0a396bd.jpg Скачать фильм Сторожка через торрент бесплантно в хорошем качестве Описание: Молодая женщина Грейс выходит замуж за журналиста Ричарда, и теперь ей предстоит стать мачехой двоим детям. Чему сами Мия и Эйден ... 10 10 4
Торрент: Зарегистрирован [2020-04-28 19:02] · скачан: 36 раз
Статус: √ проверено
Размер: 4.14 GB
Как cкачать? Как скачать Сторожка через торрент | UTorrent

% Раздел Тема Автор DL S | L
Фильмы 2019-2020 [DVDrip, WEB-DLRip, HDrip] (DUB, MVO) [ 743 MB ] Сторожка / The Lodge [2019 HDRip] MVO bober100 Скачать
1 | 0
Фильмы 2019-2020 [DVDrip, WEB-DLRip, HDrip] (DUB, MVO) [ 1.41 GB ] Сторожка / The Lodge [2019 BDRip] MVO Twi7ter Скачать
2 | 0
Фильмы (Blu-ray, BD-Remux, HDDVD) [ 18.47 GB ] Сторожка / The Lodge [2019 BD Remux 1080p] MVO bober100 Скачать
1 | 0
Фильмы [HD 720p, 1080p] (Хороший звук DUB, MVO) [ 11.88 GB ] Сторожка / The Lodge [2019 BDRip 1080p] MVO bober100 Скачать
1 | 0
Фильмы 2019-2020 [DVDrip, WEB-DLRip, HDrip] (DUB, MVO) [ 1.46 GB ] Сторожка / The Lodge [2019 BDRip] [MVO] killermax2013 Скачать
1 | 0
Фильмы [HD 720p, 1080p] (Хороший звук DUB, MVO) [ 6.04 GB ] Сторожка / The Lodge [2019 BDRip 720p] [MVO] killermax2013 Скачать
1 | 0
Фильмы с авторской озвучкой [ 12.49 GB ] Сторожка / The Lodge [2019 BDRip 1080p] AVO [А.Важенин [BadBajo] bober100 Скачать
1 | 0

28-11-2019 20:33  

Отключить всю рекламу на сайте

18-05-2020 23:04 Сторожка Скачать торрент  

нудятина.досматривал на перемотке.piratbit.pw



    Дорогой пользователь! Огромная просьба, поблагодарите релизера, оцените раздачу и оставьте свои комментарий, если Вы скачали Сторожка через торрент бесплатно! Внесите свою лепту в развитие PiratBit!
    Комментировать посты могут только пользователи прошедшие не сложную регистрацию
    Показать сообщения:    

    Сторожка через торрент
    Скачать бесплатно Сторожка
    Сторожка скачать торрент
    Сторожка смотреть онлайн
    Cкачать фильм Сторожка бесплатно
    Сторожка скачать торрент в хорошем качестве
    Сторожка смотреть онлайн бесплатно в хорошем качестве


    Вы не можете начинать темы
    Вы не можете отвечать на сообщения
    Вы не можете редактировать свои сообщения
    Вы не можете удалять свои сообщения
    Вы не можете голосовать в опросах
    Вы не можете прикреплять файлы к сообщениям
    Вы можете скачивать файлы