Ссылка на приватное зеркало нашего сайта всего за 1$. Внимание количество ограничено!!!

2 сезон

iTunes

1 сезон

1

2 сезон

2 сезон

iTunes

1 сезон

RePack

30

Ultimate

ВАЖНО

ИГРА 18+

pack

RePack

MK11
pack

Забери бонус

RePack

jed

!!Акция!!

Alien_Rage

RePack

fifa19

RePack

Assassins Creed: Odyssey

RePack

NEED FOR SPEED™ PAYBACK

4 сезон

9 сезон

Бесстыжие 9 сезон

Все сериалы

все сериалы на PB.wtf

RePack

FAR CRY 5
  

Британский психопат / Отмщение / Avengement (Джесси Джонсон) [2019, боевик, триллер, криминал, BDRip-AVC] Dub [iTunes] piratbit.pw

Британский психопат через торрент piratbit.pw

Раздают: 13 [ 0 KB/s ]
Размер: 2.07 GB | Добавлен: 6 мес. назад | Торрент скачан:288 раз
Скачать  

28-04-2020 08:27 Британский психопат Скачать торрент  

Британский психопат / Отмщение
Avengement

«He's Out On Bad Behavior»

Страна: Великобритания
Жанр: боевик, триллер, криминал
Год выпуска: 2019
Продолжительность: 01:27:45

Перевод: Профессиональный (полное дублирование) [Akimbo Productions | iTunes]
Субтитры: русские (полные), английские (полные)
Оригинальная аудиодорожка: английский

Режиссер: Джесси Джонсон / Jesse Johnson

В ролях: Скотт Эдкинс, Крэйг Фэйрбрасс, Томас Тургус, Ник Моран, Кирстон Вэрэйнг, Лео Грегори, Бо Фаулер, Луис Мэндилор, Теренс Мэйнард, Росс О’Хеннесси

Описание: Кэйн Берджесс, поддавшись влиянию старшего брата, идет на преступление и горит на первом же деле, став причиной смерти невинного человека. Следующие семь лет ему предстоит провести в самой суровой тюрьме Англии. Раньше он просто был готов постоять за себя, но ежедневные бои за жизнь сделали из него зверя. Все время заключения он мечтал о мести. Ему удается выбраться из тюрьмы, и теперь он может отомстить тем, кто сделал из него хладнокровного убийцу.



Релиз:

Автор рипа: stalkerok
Русские субтитры: Наталья Раевская aka Enigma

Сэмпл

Качество видео: BDRip-AVC | Исходник: Avengement 2019 Uncut 1080p GER Blu-ray AVC DTS-HD MA 5.1
Формат видео: MKV
Видео кодек: AVC
Аудио кодек: AC3
Видео: AVC, 2546 Кбит/сек, 1152x492 (2.35:1), 23,976 кадр/сек
Аудио №1: AC3, 384 Кбит/сек, 48 КГц, 5.1 - русский
Аудио №2: AC3, 448 Кбит/сек, 48 КГц, 5.1 - английский
Навигация по главам: есть
---[Information] [28.04.2020 10:35:26] x264 [info]: frame I:1184 Avg QP:13.38 size: 75850
---[Information] [28.04.2020 10:35:26] x264 [info]: frame P:29261 Avg QP:15.17 size: 27536
---[Information] [28.04.2020 10:35:26] x264 [info]: frame B:95755 Avg QP:17.67 size: 8143
---[Information] [28.04.2020 10:35:26] x264 [info]: consecutive B-frames: 3.7% 5.5% 9.3% 17.4% 14.7% 25.1% 10.5% 9.3% 1.8% 0.6% 0.4% 0.3% 0.3% 0.4% 0.6%

General
Unique ID : 11783244253311060927379144656902717449 (0x8DD5ECBA653C95D0D9F0A64B0C88009)
Complete name : C:\temp\Avengement\Avengement.2019.BDRip.x264.Rus.Eng.stalkerok.New-Team.mkv
Format : Matroska
Format version : Version 4 / Version 2
File size : 2.07 GiB
Duration : 1 h 27 min
Overall bit rate : 3 380 kb/s
Movie name : Avengement (2019) | Rip by stalkerok
Encoded date : UTC 2020-04-28 07:59:42
Writing application : mkvmerge v44.0.0 ('Domino') 64-bit
Writing library : libebml v1.3.10 + libmatroska v1.5.2
Attachments : front.jpg

Video
ID : 1
Format : AVC
Format/Info : Advanced Video Codec
Format profile : High@L4.1
Format settings, CABAC : Yes
Format settings, ReFrames : 12 frames
Codec ID : V_MPEG4/ISO/AVC
Duration : 1 h 27 min
Bit rate : 2 546 kb/s
Width : 1 152 pixels
Height : 492 pixels
Display aspect ratio : 2.35:1
Frame rate mode : Constant
Frame rate : 23.976 FPS
Color space : YUV
Chroma subsampling : 4:2:0
Bit depth : 8 bits
Scan type : Progressive
Bits/(Pixel*Frame) : 0.187
Stream size : 1.56 GiB (75%)
Title : Avengement (2019) | Rip by stalkerok
Writing library : x264 core 160 r3000 33f9e14
Encoding settings : cabac=1 / ref=12 / deblock=1:-3:-3 / analyse=0x3:0x133 / me=umh / subme=10 / psy=1 / psy_rd=1.00:0.00 / mixed_ref=1 / me_range=32 / chroma_me=1 / trellis=2 / 8x8dct=1 / cqm=0 / deadzone=21,11 / fast_pskip=0 / chroma_qp_offset=-2 / threads=12 / lookahead_threads=3 / sliced_threads=0 / nr=0 / decimate=1 / interlaced=0 / bluray_compat=0 / constrained_intra=0 / bframes=14 / b_pyramid=2 / b_adapt=2 / b_bias=0 / direct=3 / weightb=1 / open_gop=0 / weightp=2 / keyint=240 / keyint_min=23 / scenecut=40 / intra_refresh=0 / rc_lookahead=60 / rc=crf / mbtree=0 / crf=16.4 / qcomp=0.65 / qpmin=0 / qpmax=69 / qpstep=4 / vbv_maxrate=50000 / vbv_bufsize=62500 / crf_max=0.0 / nal_hrd=none / filler=0 / ip_ratio=1.40 / pb_ratio=1.30 / aq=3:0.80
Default : Yes
Forced : No

Audio #1
ID : 2
Format : AC-3
Format/Info : Audio Coding 3
Mode extension : CM (complete main)
Format settings, Endianness : Big
Codec ID : A_AC3
Duration : 1 h 27 min
Bit rate mode : Constant
Bit rate : 384 kb/s
Channel(s) : 6 channels
Channel positions : Front: L C R, Side: L R, LFE
Sampling rate : 48.0 kHz
Frame rate : 31.250 FPS (1536 spf)
Compression mode : Lossy
Stream size : 241 MiB (11%)
Title : Dub
Language : Russian
Default : Yes
Forced : No

Audio #2
ID : 3
Format : AC-3
Format/Info : Audio Coding 3
Mode extension : CM (complete main)
Format settings, Endianness : Big
Codec ID : A_AC3
Duration : 1 h 27 min
Bit rate mode : Constant
Bit rate : 448 kb/s
Channel(s) : 6 channels
Channel positions : Front: L C R, Side: L R, LFE
Sampling rate : 48.0 kHz
Frame rate : 31.250 FPS (1536 spf)
Compression mode : Lossy
Stream size : 281 MiB (13%)
Language : English
Default : No
Forced : No

Text #1
ID : 4
Format : UTF-8
Codec ID : S_TEXT/UTF8
Codec ID/Info : UTF-8 Plain Text
Duration : 1 h 26 min
Bit rate : 98 b/s
Count of elements : 1117
Stream size : 62.1 KiB (0%)
Title : Full (Enigma)
Language : Russian
Default : No
Forced : No

Text #2
ID : 5
Format : UTF-8
Codec ID : S_TEXT/UTF8
Codec ID/Info : UTF-8 Plain Text
Duration : 1 h 26 min
Bit rate : 69 b/s
Count of elements : 1118
Stream size : 43.9 KiB (0%)
Title : Full
Language : English
Default : No
Forced : No

Menu
00:00:00.000 : :Chapter 1
00:03:16.190 : :Chapter 2
00:10:55.850 : :Chapter 3
00:22:37.480 : :Chapter 4
00:32:40.190 : :Chapter 5
00:40:08.720 : :Chapter 6
00:52:10.280 : :Chapter 7
00:57:15.570 : :Chapter 8
01:00:47.880 : :Chapter 9
01:12:39.200 : :Chapter 10
01:16:56.950 : :Chapter 11
01:23:22.820 : :Chapter 12
piratbit.pw



Скачать Британский психопат через торрент http://i6.imageban.ru/out/2017/09/18/2ff75c0c358795c5946784cc1680714d.png Скачать фильм Британский психопат через торрент бесплантно в хорошем качестве Описание: Кэйн Берджесс, поддавшись влиянию старшего брата, идет на преступление и горит на первом же деле, став причиной смерти невинного ... 6.6 10 5
Info! Золотая раздача, скачанное не засчитывается.
Торрент: Зарегистрирован [2020-04-28 08:27] · скачан: 288 раз
Статус: √ проверено
Размер: 2.07 GB
Как cкачать? Как скачать Британский психопат через торрент | qTorrent

% Раздел Тема Автор DL S | L
Фильмы [HD 720p, 1080p] (Хороший звук DUB, MVO) [ 8.31 GB ] Британский психопат / Отмщение / Avengement [2019 BDRip 1080p ] bober100 Скачать
11 | 0
Фильмы 2019-2020 [DVDrip, WEB-DLRip, HDrip] (DUB, MVO) [ 745 MB ] Британский психопат / Отмщение / Avengement [2019 BDRip-AVC] Dub sokol_ok Скачать
6 | 0
Фильмы 2019-2020 [DVDrip, WEB-DLRip, HDrip] (DUB, MVO) [ 2.86 GB ] Британский психопат / Отмщение / Avengement [2019 BDRip-AVC ] +MVO+AVO bober100 Скачать
4 | 0
Фильмы 2019-2020 [DVDrip, WEB-DLRip, HDrip] (DUB, MVO) [ 1.46 GB ] Британский психопат / Отмщение / Avengement [2019 BDRip ] bober100 Скачать
1 | 0
Фильмы 2019-2020 [DVDrip, WEB-DLRip, HDrip] (DUB, MVO) [ 1.46 GB ] Британский психопат / Отмщение / Avengement [2019 BDRip-AVC] MVO [HDRezka studio] - ExKinoRay Enigma2010 Скачать
8 | 0
Фильмы 2019-2020 [DVDrip, WEB-DLRip, HDrip] (DUB, MVO) [ 742 MB ] Британский психопат / Отмщение / Avengement [2019 HDRip ] bober100 Скачать
2 | 0
Фильмы [HD 720p, 1080p] (Хороший звук DUB, MVO) [ 4.3 GB ] Британский психопат / Отмщение / Avengement [2019 BDRip 720p ] bober100 Скачать
2 | 0

28-11-2019 20:33  

Отключить всю рекламу на сайте

    Дорогой пользователь! Огромная просьба, поблагодарите релизера, оцените раздачу и оставьте свои комментарий, если Вы скачали Британский психопат через торрент бесплатно! Внесите свою лепту в развитие PiratBit!
    Комментировать посты могут только пользователи прошедшие не сложную регистрацию
    Показать сообщения:    

    Британский психопат через торрент
    Скачать бесплатно Британский психопат
    Британский психопат скачать торрент
    Британский психопат смотреть онлайн
    Cкачать фильм Британский психопат бесплатно
    Британский психопат скачать торрент в хорошем качестве
    Британский психопат смотреть онлайн бесплатно в хорошем качестве


    Вы не можете начинать темы
    Вы не можете отвечать на сообщения
    Вы не можете редактировать свои сообщения
    Вы не можете удалять свои сообщения
    Вы не можете голосовать в опросах
    Вы не можете прикреплять файлы к сообщениям
    Вы можете скачивать файлы