Ссылка на приватное зеркало нашего сайта всего за 1$. Внимание количество ограничено!!!

2 сезон

iTunes

1 сезон

1

2 сезон

2 сезон

iTunes

1 сезон

RePack

30

Ultimate

ВАЖНО

ИГРА 18+

pack

RePack

MK11
pack

Забери бонус

RePack

jed

!!Акция!!

Alien_Rage

RePack

fifa19

RePack

Assassins Creed: Odyssey

RePack

NEED FOR SPEED™ PAYBACK

4 сезон

9 сезон

Бесстыжие 9 сезон

Все сериалы

все сериалы на PB.wtf

RePack

FAR CRY 5
  

Британский психопат / Отмщение / Avengement (Джесси Джонсон) [2019, Боевик, криминал, BDRip-AVC, (Полная версия)] DUB [iTunes] +MVO+AVO piratbit.pw

Британский психопат через торрент piratbit.pw

Раздают: 1 [ 0 KB/s ]
Размер: 2.86 GB | Добавлен: 7 мес. назад | Торрент скачан:167 раз
Скачать  

27-04-2020 17:33 Британский психопат Скачать торрент  

Британский психопат | Отмщение | Avengement
Год выпуска: 2019
Страна: Великобритания
Студия: Samuel Goldwyn Films
Жанр: Боевик, криминал
Продолжительность: 01:27:45
Перевод:
Дублированный | iTunes
Профессиональный (многоголосый, закадровый) | HDRezka Studio
Авторский (одноголосый, закадровый) | Чадов | ненормативная лексика
Субтитры: Русские (Full (Наталья Раевская)), английские (Full, SDH)

Режиссер: Джесси Джонсон

rating

В ролях: Скотт Эдкинс, Крэйг Фэйрбрасс, Томас Тургус, Ник Моран, Кирстон Вэрэйнг, Лео Грегори, Бо Фаулер, Луис Мэндилор, Теренс Мэйнард, Росс О'Хеннесси

Описание: Главный герой фильма с ранних лет воспитывался улицей криминального неблагополучного района. Он попал под крыло влиятельного человека, который давал ему различные мелкие поручения. Вскоре парня заметил более серьезный человек в криминальном мире, который решил сделать из него наемного убийцу. Годы тренировок убили в главном герои чувство жалости и страха. Он превратился в настоящего киллера, который всегда выполнял заказ. Но однажды очередное дело закончилось для него провалом, в результате чего он оказался за решеткой. В стенах тюрьмы его не раз пытались убить, но он смог сохранить свою жизнь. Выйдя на свободу мужчина желает только одного — найти всех виновных в его неудавшейся жизни и отомстить им...

Качество: BDRip-AVC | Полная версия
Формат: MKV

Видео: 1024x438 (2,35:1), 23,976 fps, MPEG-4 AVC ~ 3189 Kbps avg, 0.297 bit/pixel
Аудио: AC3, 48 kHz, 6 ch, ~384.00 kbps avg | русский | iTunes | RUS |
Аудио: AC3, 48 kHz, 2 ch, ~192.00 kbps avg | русский | HDRezka Studio | RUS |
Аудио: AC3, 48 kHz, 6 ch, ~448.00 kbps avg | русский | Чадов | RUS |
Аудио: AC3, 48 kHz, 6 ch, ~448.00 kbps avg | английский | Оригинал |
скриншот  скриншот  скриншот  скриншот  скриншот  

Общее
Уникальный идентификатор : 288080090063392047503687153376347594868 (0xD8BA3509FA1803D94DAB8902CC44A074)
Полное имя : Avengement.2019.BDRip.2.86Gb.x264.mkv
Формат : Matroska
Версия формата : Version 4
Размер файла : 2,86 Гбайт
Продолжительность : 1 ч. 27 м.
Общий поток : 4661 Кбит/сек
Название фильма : Британский психопат / Отмщение / Avengement (2019)
Дата кодирования : UTC 2020-04-27 16:36:33
Программа кодирования : mkvmerge v41.0.0 ('Smarra') 64-bit
Библиотека кодирования : libebml v1.3.9 + libmatroska v1.5.2
Обложка : Yes
Attachments : cover.jpg

Видео
Идентификатор : 1
Формат : AVC
Формат/Информация : Advanced Video Codec
Профиль формата : High@L4.1
Настройки формата : CABAC / 10 Ref Frames
Параметр CABAC формата : Да
Параметр RefFrames формата : 10 кадров
Идентификатор кодека : V_MPEG4/ISO/AVC
Продолжительность : 1 ч. 27 м.
Битрейт : 3189 Кбит/сек
Ширина : 1024 пикселя
Высота : 438 пикселей
Соотношение сторон : 2,35:1
Режим частоты кадров : Постоянный
Частота кадров : 23,976 кадра/сек
Цветовое пространство : YUV
Субдискретизация насыщенности : 4:2:0
Битовая глубина : 8 бит
Тип развёртки : Прогрессивная
Бит/(Пиксели*Кадры) : 0.297
Размер потока : 1,95 Гбайт (68%)
Заголовок : #stillet
Библиотека кодирования : x264 core 152 r2851bm ba24899
Настройки программы : cabac=1 / ref=10 / deblock=1:-3:-3 / analyse=0x3:0x113 / me=umh / subme=11 / psy=1 / psy_rd=1.00:0.15 / mixed_ref=1 / me_range=32 / chroma_me=1 / trellis=2 / 8x8dct=1 / cqm=0 / deadzone=21,11 / fast_pskip=0 / chroma_qp_offset=-3 / threads=8 / lookahead_threads=3 / sliced_threads=0 / nr=0 / decimate=0 / interlaced=0 / bluray_compat=0 / constrained_intra=0 / bframes=10 / b_pyramid=2 / b_adapt=2 / b_bias=0 / direct=3 / weightb=1 / open_gop=0 / weightp=2 / keyint=240 / keyint_min=23 / scenecut=40 / intra_refresh=0 / rc=2pass / mbtree=0 / bitrate=3189 / ratetol=1.0 / qcomp=0.60 / qpmin=0 / qpmax=69 / qpstep=4 / cplxblur=20.0 / qblur=0.5 / ip_ratio=1.40 / pb_ratio=1.30 / aq=1:1.00
Язык : English
Default : Да
Forced : Нет

Аудио #1
Идентификатор : 2
Формат : AC-3
Формат/Информация : Audio Coding 3
Коммерческое название : Dolby Digital
Идентификатор кодека : A_AC3
Продолжительность : 1 ч. 27 м.
Вид битрейта : Постоянный
Битрейт : 384 Кбит/сек
Каналы : 6 каналов
ChannelLayout : L R C LFE Ls Rs
Частота : 48,0 КГц
Частота кадров : 31,250 кадров/сек (1536 SPF)
Метод сжатия : С потерями
Размер потока : 241 Мбайт (8%)
Заголовок : DUB | iTunes
Язык : Russian
Default : Да
Forced : Да

Аудио #2
Идентификатор : 3
Формат : AC-3
Формат/Информация : Audio Coding 3
Коммерческое название : Dolby Digital
Идентификатор кодека : A_AC3
Продолжительность : 1 ч. 27 м.
Вид битрейта : Постоянный
Битрейт : 192 Кбит/сек
Каналы : 2 канала
ChannelLayout : L R
Частота : 48,0 КГц
Частота кадров : 31,250 кадров/сек (1536 SPF)
Метод сжатия : С потерями
Задержка видео : 151 мс.
Размер потока : 121 Мбайт (4%)
Заголовок : MVO | HDRezka Studio
Язык : Russian
Default : Нет
Forced : Нет

Аудио #3
Идентификатор : 4
Формат : AC-3
Формат/Информация : Audio Coding 3
Коммерческое название : Dolby Digital
Идентификатор кодека : A_AC3
Продолжительность : 1 ч. 27 м.
Вид битрейта : Постоянный
Битрейт : 448 Кбит/сек
Каналы : 6 каналов
ChannelLayout : L R C LFE Ls Rs
Частота : 48,0 КГц
Частота кадров : 31,250 кадров/сек (1536 SPF)
Метод сжатия : С потерями
Задержка видео : 151 мс.
Размер потока : 281 Мбайт (10%)
Заголовок : AVO | Чадов
Язык : Russian
Default : Нет
Forced : Нет

Аудио #4
Идентификатор : 5
Формат : AC-3
Формат/Информация : Audio Coding 3
Коммерческое название : Dolby Digital
Идентификатор кодека : A_AC3
Продолжительность : 1 ч. 27 м.
Вид битрейта : Постоянный
Битрейт : 448 Кбит/сек
Каналы : 6 каналов
ChannelLayout : L R C LFE Ls Rs
Частота : 48,0 КГц
Частота кадров : 31,250 кадров/сек (1536 SPF)
Метод сжатия : С потерями
Размер потока : 281 Мбайт (10%)
Язык : English
Default : Нет
Forced : Нет

Текст #1
Идентификатор : 6
Формат : UTF-8
Идентификатор кодека : S_TEXT/UTF8
Идентификатор кодека/Информация : UTF-8 Plain Text
Продолжительность : 1 ч. 26 м.
Битрейт : 98 бит/сек
ElementCount : 1117
Размер потока : 62,1 Кбайт (0%)
Заголовок : Full (Enigma)
Язык : Russian
Default : Нет
Forced : Нет

Текст #2
Идентификатор : 7
Формат : UTF-8
Идентификатор кодека : S_TEXT/UTF8
Идентификатор кодека/Информация : UTF-8 Plain Text
Продолжительность : 1 ч. 26 м.
Битрейт : 69 бит/сек
ElementCount : 1118
Размер потока : 43,9 Кбайт (0%)
Заголовок : Full
Язык : English
Default : Нет
Forced : Нет

Текст #3
Идентификатор : 8
Формат : UTF-8
Идентификатор кодека : S_TEXT/UTF8
Идентификатор кодека/Информация : UTF-8 Plain Text
Продолжительность : 1 ч. 27 м.
Битрейт : 72 бит/сек
ElementCount : 1218
Размер потока : 46,3 Кбайт (0%)
Заголовок : SDH
Язык : English
Default : Нет
Forced : Нет

Меню
00:00:00.000 : :Chapter 1
00:03:16.190 : :Chapter 2
00:10:55.850 : :Chapter 3
00:22:37.480 : :Chapter 4
00:32:40.190 : :Chapter 5
00:40:08.720 : :Chapter 6
00:52:10.280 : :Chapter 7
00:57:15.570 : :Chapter 8
01:00:47.880 : :Chapter 9
01:12:39.200 : :Chapter 10
01:16:56.950 : :Chapter 11
01:23:22.820 : :Chapter 12

piratbit.pw



Скачать Британский психопат через торрент https://i106.fastpic.ru/big/2019/0531/ae/ab8d9f58f6c874e6df54e1293ebef0ae.png Скачать фильм Британский психопат через торрент бесплантно в хорошем качестве Описание: Главный герой фильма с ранних лет воспитывался улицей криминального неблагополучного района. Он попал под крыло влиятельного ... 10 10 8
Торрент: Зарегистрирован [2020-04-27 17:33] · скачан: 167 раз
Статус: √ проверено
Размер: 2.86 GB
Как cкачать? Как скачать Британский психопат через торрент | qTorrent

28-11-2019 20:33  

Отключить всю рекламу на сайте

    Дорогой пользователь! Огромная просьба, поблагодарите релизера, оцените раздачу и оставьте свои комментарий, если Вы скачали Британский психопат через торрент бесплатно! Внесите свою лепту в развитие PiratBit!
    Комментировать посты могут только пользователи прошедшие не сложную регистрацию
    Показать сообщения:    

    Британский психопат через торрент
    Скачать бесплатно Британский психопат
    Британский психопат скачать торрент
    Британский психопат смотреть онлайн
    Cкачать фильм Британский психопат бесплатно
    Британский психопат скачать торрент в хорошем качестве
    Британский психопат смотреть онлайн бесплатно в хорошем качестве


    Вы не можете начинать темы
    Вы не можете отвечать на сообщения
    Вы не можете редактировать свои сообщения
    Вы не можете удалять свои сообщения
    Вы не можете голосовать в опросах
    Вы не можете прикреплять файлы к сообщениям
    Вы можете скачивать файлы