2 сезон

iTunes

WEBRip

1

2 сезон

iTunes

1 сезон

1 сезон

RePack

30

Ultimate

ВАЖНО

ИГРА 18+

pack

RePack

MK11
pack

Легкие деньги

RePack

jed

RePack

fifa19

RePack

RDR2

RePack

NEED FOR SPEED™ PAYBACK

4 сезон

9 сезон

Бесстыжие 9 сезон

Все сериалы

все сериалы на PB.wtf

RePack

FAR CRY 5

Anonymous, доброй ночи, мы не успеваем собрать деньги на оплату серверов за февраль, помогите нам пожалуйста в это трудное время. В качестве благодарности мы отключим Вам всю рекламу на сайте (укажите свой ник в строку Ваше имя)!

×
  
Magnet ссылка

Калашников (Константин Буслов) [2020, биография, история, BDRip-AVC] [GER Transfer / Лицензия] piratbit.pw

Калашников через торрент piratbit.pw

Размер: 1.46 GB | Добавлен: 4 мес. 14 д. назад | Торрент скачан:38 раз
Скачать  

27-04-2020 15:35 Калашников Скачать торрент  

Калашников
Год выпуска: 2020
Страна: Россия
Студия: RB Production
Жанр: биография, история
Продолжительность: 01:44:33
Перевод: Не требуется | Лицензия Blu-Ray GER
Субтитры: Русские (форсированные)

Режиссер: Константин Буслов

rating

В ролях: Юрий Борисов, Ольга Лерман, Артур Смольянинов, Эльдар Калимулин, Виталий Хаев, Валерий Баринов, Анатолий Лобоцкий, Алексей Вертков, Дмитрий Богдан, Максим Битюков

Описание: Калашников. Все знают эту фамилию, но не все знают, какой долгий и тернистый путь прошел парень-самоучка, чтобы в 28 создать легендарное оружие АК-47, которое по сей день является символом оружейной мысли нашего времени.

Качество: BDRip-AVC | GER Transfer
Формат: MKV

Видео: 720x320 (2,25:1), 24 fps, MPEG-AVC, 1547 Кbps avg, 0.280 bit/pixe
Аудио: AC3, 48 kHz, 6 ch, ~448.00 kbps avg | русский |
скриншот  скриншот  скриншот  скриншот  скриншот  

Общее
Уникальный идентификатор : 261883197085589124091010497535282767225 (0xC504DE7EA44AE234CEBFC02DF097E579)
Полное имя : AK.47.Kalaschnikow.2020.GER.BDRip.1.46Gb.x264.mkv
Формат : Matroska
Версия формата : Version 4
Размер файла : 1,46 Гбайт
Продолжительность : 1 ч. 44 м.
Общий поток : 1 996 Кбит/сек
Название фильма : Калашников (2020) BDRip-AVC
Дата кодирования : UTC 2020-10-18 14:47:43
Программа кодирования : mkvmerge v47.0.0 ('Black Flag') 64-bit
Библиотека кодирования : libebml v1.3.10 + libmatroska v1.5.2
Обложка : Yes
Attachments : cover.jpg

Видео
Идентификатор : 1
Формат : AVC
Формат/Информация : Advanced Video Codec
Профиль формата : High@L4.1
Настройки формата : CABAC / 11 Ref Frames
Параметр CABAC формата : Да
Параметр RefFrames формата : 11 кадров
Идентификатор кодека : V_MPEG4/ISO/AVC
Продолжительность : 1 ч. 44 м.
Битрейт : 1 547 Кбит/сек
Ширина : 720 пикселей
Высота : 320 пикселей
Соотношение сторон : 2,25:1
Режим частоты кадров : Постоянный
Частота кадров : 24,000 кадра/сек
Цветовое пространство : YUV
Субдискретизация насыщенности : 4:2:0
Битовая глубина : 8 бит
Тип развёртки : Прогрессивная
Бит/(Пиксели*Кадры) : 0.280
Размер потока : 1,13 Гбайт (77%)
Заголовок : #stillet
Библиотека кодирования : x264 core 152 r2851bm ba24899
Настройки программы : cabac=1 / ref=11 / deblock=1:-2:-2 / analyse=0x3:0x113 / me=umh / subme=10 / psy=1 / psy_rd=1.00:0.15 / mixed_ref=1 / me_range=32 / chroma_me=1 / trellis=2 / 8x8dct=1 / cqm=0 / deadzone=21,11 / fast_pskip=0 / chroma_qp_offset=-3 / threads=8 / lookahead_threads=3 / sliced_threads=0 / nr=0 / decimate=0 / interlaced=0 / bluray_compat=0 / constrained_intra=0 / bframes=12 / b_pyramid=2 / b_adapt=2 / b_bias=0 / direct=3 / weightb=1 / open_gop=0 / weightp=2 / keyint=240 / keyint_min=24 / scenecut=40 / intra_refresh=0 / rc=2pass / mbtree=0 / bitrate=1547 / ratetol=1.0 / qcomp=0.60 / qpmin=0 / qpmax=69 / qpstep=4 / cplxblur=20.0 / qblur=0.5 / ip_ratio=1.40 / pb_ratio=1.30 / aq=1:1.00
Язык : German
Default : Да
Forced : Нет

Аудио
Идентификатор : 2
Формат : AC-3
Формат/Информация : Audio Coding 3
Коммерческое название : Dolby Digital
Идентификатор кодека : A_AC3
Продолжительность : 1 ч. 44 м.
Вид битрейта : Постоянный
Битрейт : 448 Кбит/сек
Каналы : 6 каналов
Channel layout : L R C LFE Ls Rs
Частота : 48,0 КГц
Частота кадров : 31,250 кадров/сек (1536 SPF)
Метод сжатия : С потерями
Размер потока : 335 Мбайт (22%)
Заголовок : Blu-ray GER
Язык : Russian
Service kind : Complete Main
Default : Да
Forced : Да

Текст
Идентификатор : 3
Формат : UTF-8
Идентификатор кодека : S_TEXT/UTF8
Идентификатор кодека/Информация : UTF-8 Plain Text
Продолжительность : 1 ч. 29 м.
Битрейт : 1 бит/сек
Count of elements : 15
Размер потока : 1,07 Кбайт (0%)
Заголовок : Forced
Язык : Russian
Default : Да
Forced : Да

Меню
00:00:00.000 : :de: 01
00:04:09.457 : :de: 02
00:11:51.000 : :de: 03
00:19:54.083 : :de: 04
00:27:33.000 : :de: 05
00:33:59.790 : :de: 06
00:38:04.916 : :de: 07
00:45:04.625 : :de: 08
00:55:43.125 : :de: 09
01:05:46.541 : :de: 10
01:14:01.791 : :de: 11
01:16:34.916 : :de: 12
01:22:24.250 : :de: 13
01:28:49.041 : :de: 14
01:36:09.332 : :de: 15
01:41:21.916 : :de: 16
01:44:32.166 : :de: 17

piratbit.pw



Скачать Калашников через торрент https://i114.fastpic.ru/big/2020/1017/fb/65c21bcebcb18469447654e5c3a665fb.jpg Скачать фильм Калашников через торрент бесплантно в хорошем качестве Описание: Калашников. Все знают эту фамилию, но не все знают, какой долгий и тернистый путь прошел парень-самоучка, чтобы в 28 создать ... 8 10 23
Торрент: Зарегистрирован [2020-10-18 18:04] · скачан: 38 раз
Статус: √ проверено
Размер: 1.46 GB
Как cкачать? Как скачать Калашников через торрент | UTorrent

% Раздел Тема Автор DL S | L
Фильмы [HD 720p, 1080p] (Хороший звук DUB, MVO) [ 8.18 GB ] Калашников [2020 биография история BDRip 1080p ] bober100 Скачать
6 | 0
Наши новые фильмы 2020 - 2021 [ 1.46 GB ] Калашников [2020 биография история BDRip] [Русский] [] Twi7ter Скачать
67 | 0
Наши фильмы (HD, WEB-DL 720p, 1080p) [ 7.79 GB ] Калашников [2020 биография история BDRip-HEVC 1080p ] [GER Transfer / ] bober100 Скачать
2 | 0
Наши фильмы (Blu-ray, BD-Remux, HDDVD) [ 28.72 GB ] Калашников [2020 биография история BD Remux 1080p] [GER Transfer / ] bober100 Скачать
1 | 1
Наши фильмы (Blu-ray, BD-Remux, HDDVD) [ 35.48 GB ] Калашников [2020 биография история Blu-ray 1080p] [GER Transfer / ] bober100 Скачать
2 | 0
Наши фильмы (HD, WEB-DL 720p, 1080p) [ 4.01 GB ] Калашников [2020 биография история WEB-DL 1080p] bober100 Скачать
5 | 0
Наши новые фильмы 2020 - 2021 [ 2.18 GB ] Калашников [2020 биография история BDRip-AVC] [GER Transfer / ] bober100 Скачать
2 | 0


Последний раз редактировалось: bober100 (2020-05-04 13:03), всего редактировалось 1 раз

28-11-2019 20:33  

Отключить всю рекламу на сайте

    Дорогой пользователь! Огромная просьба, поблагодарите релизера, оцените раздачу и оставьте свои комментарий, если Вы скачали Калашников через торрент бесплатно! Внесите свою лепту в развитие PiratBit!
    Комментировать посты могут только пользователи прошедшие не сложную регистрацию
    Показать сообщения:    

    Калашников через торрент
    Скачать бесплатно Калашников
    Калашников скачать торрент
    Калашников смотреть онлайн
    Cкачать фильм Калашников бесплатно
    Калашников скачать торрент в хорошем качестве
    Калашников смотреть онлайн бесплатно в хорошем качестве


    Вы не можете начинать темы
    Вы не можете отвечать на сообщения
    Вы не можете редактировать свои сообщения
    Вы не можете удалять свои сообщения
    Вы не можете голосовать в опросах
    Вы не можете прикреплять файлы к сообщениям
    Вы можете скачивать файлы