Marvel's Avengers Deluxe Edition (супер цена) 159р. Внимание количество ограничено!!!

2 сезон

iTunes

iTunes

1

iTunes

iTunes

iTunes

WEBRip

iTunes

30
pack

Новость дня

ВАЖНО

!!Акция!!

Alien_RageХит недели

RePack

Horizon Zero Dawn

ИГРА 18+

pack

RePack

jed

!!Акция!!

Alien_Rage

RePack

fifa19

RePack

Assassins Creed: Odyssey

RePack

NEED FOR SPEED™ PAYBACK

4 сезон

9 сезон

Бесстыжие 9 сезон

Все сериалы

все сериалы на PB.wtf

RePack

FAR CRY 5
  

Текст (Клим Шипенко) [2019, Драма, триллер, BDRip 720p, (Версия без цензуры)] [Лицензия BD RUS] piratbit.pw

Текст через торрент piratbit.pw

Раздают: 2 [ 103 KB/s ]
Размер: 6.79 GB | Добавлен: 4 мес. 24 д. назад | Торрент скачан:84 раза
Скачать  

25-04-2020 15:14 Текст Скачать торрент  

Текст
Год выпуска: 2019
Страна: Россия
Жанр: Драма, триллер
Продолжительность: 02:11:30
Перевод: Не требуется | Лицензия BD RUS
Субтитры: отсутствуют
Версия без цензуры

Режиссер: Клим Шипенко

rating

В ролях:

Александр Петров (Илья Горюнов), Кристина Асмус (Нина), Иван Янковский (Пётр Хазин), Софья Озерова (Вера), Максим Виноградов (Серёга), Виталий Хаев (Денис Сергеевич), Дмитрий Глуховский (пассажир в метро), Кирилл Нагиев (Гоша), Елена Финогеева
Описание: Главный герой — 27-летний Илья Горюнов, семь лет отсидевший в тюрьме по ложному обвинению в распространении наркотиков. Когда Илья выходит на свободу, он понимает, что прежняя жизнь, по которой он тосковал, разрушена, и вернуться к ней он больше не сможет. Хотя он не собирался мстить человеку, который отправил его в тюрьму, другого выхода теперь нет. Встретившись лицом к лицу со своим обидчиком, Илья совершает необдуманный поступок, после которого главный герой получает доступ к смартфону Петра, а с ним и к жизни молодого человека — его фотографиям и видео, перепискам с родителями и девушкой Ниной, к странным, полным недомолвок и угроз переговорам с коллегами. На время Илья становится для всех Петром — через текст на экране телефона.

Качество: BDRip 720p
Формат: MKV

Видео: MPEG-4 AVC, 1280x536, 5246 kbps, 24,000 fps
Аудио#1: русский, AC3, 5.1 ch, 48 kHz, 640 kbps
Аудио#2: русский, DTS, 5.1 ch, 48 kHz, 1509 kbps
скриншот  скриншот  скриншот  скриншот  скриншот  

Общее
Уникальный идентификатор : 232379338949900974777056336846588903627 (0xAED2A1FADBDEBB2D8145B6F4DFF680CB)
Полное имя : G:Torrent2TekstBDRip720p.mkv
Формат : Matroska
Версия формата : Version 4 / Version 2
Размер файла : 6,79 Гбайт
Продолжительность : 2 ч. 11 м.
Общий поток : 7391 Кбит/сек
Дата кодирования : UTC 2020-04-24 12:05:47
Программа кодирования : mkvmerge v9.5.0 ('Quiet Fire') 64bit
Библиотека кодирования : libebml v1.3.4 + libmatroska v1.4.5

Видео
Идентификатор : 1
Формат : AVC
Формат/Информация : Advanced Video Codec
Профиль формата : High@L4.1
Настройки формата : CABAC / 12 Ref Frames
Параметр CABAC формата : Да
Параметр RefFrames формата : 12 кадров
Идентификатор кодека : V_MPEG4/ISO/AVC
Продолжительность : 2 ч. 11 м.
Битрейт : 5246 Кбит/сек
Ширина : 1280 пикселей
Высота : 536 пикселей
Соотношение сторон : 2,40:1
Режим частоты кадров : Постоянный
Частота кадров : 24,000 кадра/сек
Цветовое пространство : YUV
Субдискретизация насыщенности : 4:2:0
Битовая глубина : 8 бит
Тип развёртки : Прогрессивная
Бит/(Пиксели*Кадры) : 0.319
Размер потока : 4,81 Гбайт (71%)
Заголовок : Sisendrovich(R)
Библиотека кодирования : x264 core 159 r2991 1771b55
Настройки программы : cabac=1 / ref=12 / deblock=1:-1:-1 / analyse=0x3:0x133 / me=tesa / subme=11 / psy=1 / psy_rd=1.00:0.00 / mixed_ref=1 / me_range=32 / chroma_me=1 / trellis=2 / 8x8dct=1 / cqm=0 / deadzone=21,11 / fast_pskip=0 / chroma_qp_offset=-2 / threads=17 / lookahead_threads=4 / sliced_threads=0 / nr=0 / decimate=0 / interlaced=0 / bluray_compat=0 / constrained_intra=0 / bframes=14 / b_pyramid=2 / b_adapt=2 / b_bias=0 / direct=3 / weightb=1 / open_gop=0 / weightp=2 / keyint=240 / keyint_min=23 / scenecut=40 / intra_refresh=0 / rc_lookahead=60 / rc=2pass / mbtree=0 / bitrate=5246 / ratetol=1.0 / qcomp=0.70 / qpmin=0 / qpmax=69 / qpstep=4 / cplxblur=20.0 / qblur=0.5 / vbv_maxrate=50000 / vbv_bufsize=62500 / nal_hrd=none / filler=0 / ip_ratio=1.40 / pb_ratio=1.30 / aq=3:0.90
Язык : Russian
Default : Да
Forced : Нет

Аудио #1
Идентификатор : 2
Формат : AC-3
Формат/Информация : Audio Coding 3
Параметр Endianness формата : Big
Идентификатор кодека : A_AC3
Продолжительность : 2 ч. 11 м.
Вид битрейта : Постоянный
Битрейт : 640 Кбит/сек
Каналы : 6 каналов
Расположение каналов : Front: L C R, Side: L R, LFE
Частота : 48,0 КГц
Частота кадров : 31,250 кадров/сек (1536 SPF)
Битовая глубина : 16 бит
Метод сжатия : С потерями
Размер потока : 602 Мбайт (9%)
Заголовок : rusAC3
Язык : Russian
Default : Да
Forced : Нет

Аудио #2
Идентификатор : 3
Формат : DTS
Формат/Информация : Digital Theater Systems
Режим : 16
Параметр Endianness формата : Big
Идентификатор кодека : A_DTS
Продолжительность : 2 ч. 11 м.
Вид битрейта : Постоянный
Битрейт : 1509 Кбит/сек
Каналы : 6 каналов
Расположение каналов : Front: L C R, Side: L R, LFE
Частота : 48,0 КГц
Частота кадров : 93,750 кадра/сек (512 SPF)
Битовая глубина : 24 бит
Метод сжатия : С потерями
Размер потока : 1,39 Гбайт (20%)
Заголовок : rusDTS
Язык : Russian
Default : Нет
Forced : Нет

Меню
00:00:00.000 : en:Chapter 1
00:00:33.083 : en:Chapter 2
00:11:21.666 : en:Chapter 3
00:22:13.000 : en:Chapter 4
00:34:28.166 : en:Chapter 5
00:50:25.375 : en:Chapter 6
01:03:27.666 : en:Chapter 7
01:18:00.625 : en:Chapter 8
01:30:13.750 : en:Chapter 9
01:44:06.916 : en:Chapter 10
01:57:59.083 : en:Chapter 11

piratbit.pw



Скачать Текст через торрент http://lostpix.com/thumbs/2020-04/24/85axjscvb81g1oa2ydrlh8edq.png Скачать фильм Текст через торрент бесплантно в хорошем качестве Описание: Главный герой — 27-летний Илья Горюнов, семь лет отсидевший в тюрьме по ложному обвинению в распространении наркотиков. Когда ... 10 10 2
Торрент: Зарегистрирован [2020-04-25 15:14] · скачан: 84 раз
Статус: √ проверено
Размер: 6.79 GB
Как cкачать? Как скачать Текст через торрент | qTorrent

% Раздел Тема Автор DL S | L
Фантастика, фентези, мистика, ужасы [ 34 MB ] Азимов Айзек - Азимов Айзек - подборка книг [Обычный текст] Vladimir_73 Скачать
1 | 1
Фантастика, фентези, мистика, ужасы [ 3 MB ] Андрей Круз - Трилогия"Эпоха мёртвых" [Обычный текст] Anonymous Скачать
1 | 0
Фильмы 2012 [ 1.45 GB ] Третий лишний / Ted [2012 BDRip VO )] / UNRATED Userman4ik Скачать
1 | 0
Русификаторы [ 7.49 GB ] Call of Duty: Modern Warfare 3 [Текст + Звук] 2011 PC / Русификатор 2011] ElectroVamp Скачать
1 | 0
XBox360 [ 8.14 GB ] [XBOX 360]Medal of Honor Warfighter [Multiplayer Only]+ HD текстуры 2012[PAL][RUSSOUND][LT+ v3.0] samuel Скачать
1 | 0
Русификаторы [ 190 MB ] Русификатор Fallout: New Vegas [ТекстПрофес​сиональный] =Чувак= Скачать
1 | 0
Русификаторы [ 5 MB ] Русификатор для Kingdoms Of Amalur: Reckoning ) [1.0] SEYTER Скачать
1 | 0

28-11-2019 20:33  

Отключить всю рекламу на сайте

    Дорогой пользователь! Огромная просьба, поблагодарите релизера, оцените раздачу и оставьте свои комментарий, если Вы скачали Текст через торрент бесплатно! Внесите свою лепту в развитие PiratBit!
    Комментировать посты могут только пользователи прошедшие не сложную регистрацию
    Показать сообщения:    

    Текст через торрент
    Скачать бесплатно Текст
    Текст скачать торрент
    Текст смотреть онлайн
    Cкачать фильм Текст бесплатно
    Текст скачать торрент в хорошем качестве
    Текст смотреть онлайн бесплатно в хорошем качестве


    Вы не можете начинать темы
    Вы не можете отвечать на сообщения
    Вы не можете редактировать свои сообщения
    Вы не можете удалять свои сообщения
    Вы не можете голосовать в опросах
    Вы не можете прикреплять файлы к сообщениям
    Вы можете скачивать файлы