2 сезон

iTunes

WEBRip

1

2 сезон

iTunes

1 сезон

1 сезон

RePack

30

Новинка

ВАЖНО

ИГРА 18+

pack

RePack

MK11
pack

Легкие деньги

RePack

jed

RePack

fifa19

RePack

RDR2

RePack

NEED FOR SPEED™ PAYBACK

4 сезон

9 сезон

Бесстыжие 9 сезон

Все сериалы

все сериалы на PB.wtf

RePack

FAR CRY 5

Anonymous, доброй ночи, мы не успеваем собрать деньги на оплату серверов за февраль, помогите нам пожалуйста в это трудное время. В качестве благодарности мы отключим Вам всю рекламу на сайте (укажите свой ник в строку Ваше имя)!

×
  
Magnet ссылка

Спутник (Егор Абраменко) [2020, Фантастика, триллер, BDRip-AVC] [GER Transfer / Лицензия] piratbit.pw

Спутник через торрент piratbit.pw

Размер: 2.34 GB | Добавлен: 2 мес. 23 д. назад | Торрент скачан:40 раз
Скачать  

23-04-2020 05:26 Спутник Скачать торрент  

Спутник
Год выпуска: 2020
Страна: Россия
Студия: Кинокомпания «Водород», Национальная Медиа Группа (НМГ), Art Pictures Studio, Hype Film, Sony Pictures, Канал СТС
Жанр: Фантастика, триллер, драма
Продолжительность: 01:53:46
Перевод: Не требуется | Лицензия Blu-ray GER
Субтитры: Русские (форсированные), Немецкие (хардсаб)

Режиссер: Егор Абраменко

rating

В ролях: Оксана Акиньшина, Пётр Фёдоров, Фёдор Бондарчук, Антон Васильев, Виталия Корниенко, Наталья Швец, Алексей Демидов, Александр Марушев, Альбрехт Зандер, Александр Шам, Павел Устинов, Анна Назарова

Описание: СССР, 1983 год. На землю возвращается космический аппарат, но от людей скрывают, что из двух космонавтов живым возвращается только один. Что произошло на борту, остается загадкой, но факты указывают на то, что космонавт столкнулся в полете с новой формой жизни и вернулся на землю не совсем один… Нейрофизиолог Татьяна Климова пытается докопаться до правды и спасти героя, ставшего для нее небезразличным.

Качество: BDRip-AVC | GER Transfer
Формат: MKV

Видео: 1024x428 (2.40:1), 24 fps, MPEG-4 AVC, 2490 Кbps avg, 0.237 bit/pixel
Аудио: AC3, 48 kHz, 6 ch, ~448.00 kbps avg | русский | Blu-ray GER
скриншот  скриншот  скриншот  скриншот  скриншот  

x264 [info]: frame I:1022 Avg QP:12.73 size: 66002
x264 [info]: frame P:25438 Avg QP:15.18 size: 28159
x264 [info]: frame B:137372 Avg QP:16.42 size: 9762
x264 [info]: consecutive B-frames: 1.1% 0.7% 3.0% 3.7% 13.3% 41.1% 5.6% 0.7% 2.0% 1.8% 2.6% 0.9% 6.2% 13.6% 1.8% 0.6% 1.2%
*****************************************************************

Общее
Уникальный идентификатор : 110315454079656761222348290406993198591 (0x52FDFBCF713BE025594560993DD97DFF)
Полное имя : Sputnik.2020.GER.BDRip.2.34Gb.x264.MegaPeer.mkv
Формат : Matroska
Версия формата : Version 4
Размер файла : 2,34 Гбайт
Продолжительность : 1 ч. 53 м.
Общий поток : 2 940 Кбит/сек
Название фильма : Спутник (2020) от MegaPeer
Дата кодирования : UTC 2020-12-05 07:09:27
Программа кодирования : mkvmerge v47.0.0 ('Black Flag') 64-bit
Библиотека кодирования : libebml v1.3.10 + libmatroska v1.5.2
Обложка : Yes
Attachments : cover.jpg

Видео
Идентификатор : 1
Формат : AVC
Формат/Информация : Advanced Video Codec
Профиль формата : High@L4.1
Настройки формата : CABAC / 12 Ref Frames
Параметр CABAC формата : Да
Параметр RefFrames формата : 12 кадров
Идентификатор кодека : V_MPEG4/ISO/AVC
Продолжительность : 1 ч. 53 м.
Битрейт : 2 490 Кбит/сек
Ширина : 1 024 пикселя
Высота : 428 пикселей
Соотношение сторон : 2,40:1
Режим частоты кадров : Постоянный
Частота кадров : 24,000 кадра/сек
Цветовое пространство : YUV
Субдискретизация насыщенности : 4:2:0
Битовая глубина : 8 бит
Тип развёртки : Прогрессивная
Бит/(Пиксели*Кадры) : 0.237
Размер потока : 1,98 Гбайт (85%)
Заголовок : stillet@MegaPeer
Библиотека кодирования : x264 core 161 r3018 db0d417
Настройки программы : cabac=1 / ref=12 / deblock=1:-3:-3 / analyse=0x3:0x113 / me=umh / subme=11 / psy=1 / psy_rd=1.00:0.00 / mixed_ref=1 / me_range=48 / chroma_me=1 / trellis=2 / 8x8dct=1 / cqm=0 / deadzone=21,11 / fast_pskip=0 / chroma_qp_offset=-2 / threads=13 / lookahead_threads=3 / sliced_threads=0 / nr=0 / decimate=0 / interlaced=0 / bluray_compat=0 / constrained_intra=0 / bframes=16 / b_pyramid=2 / b_adapt=2 / b_bias=0 / direct=3 / weightb=1 / open_gop=0 / weightp=2 / keyint=240 / keyint_min=24 / scenecut=40 / intra_refresh=0 / rc_lookahead=40 / rc=2pass / mbtree=0 / bitrate=2490 / ratetol=1.0 / qcomp=0.60 / qpmin=0 / qpmax=69 / qpstep=4 / cplxblur=20.0 / qblur=0.5 / vbv_maxrate=50000 / vbv_bufsize=62500 / nal_hrd=none / filler=0 / ip_ratio=1.40 / pb_ratio=1.30 / aq=1:1.10
Язык : German
Default : Да
Forced : Нет

Аудио
Идентификатор : 2
Формат : AC-3
Формат/Информация : Audio Coding 3
Коммерческое название : Dolby Digital
Идентификатор кодека : A_AC3
Продолжительность : 1 ч. 53 м.
Вид битрейта : Постоянный
Битрейт : 448 Кбит/сек
Каналы : 6 каналов
Channel layout : L R C LFE Ls Rs
Частота : 48,0 КГц
Частота кадров : 31,250 кадров/сек (1536 SPF)
Метод сжатия : С потерями
Размер потока : 365 Мбайт (15%)
Заголовок : Blu-rsy EUR
Язык : Russian
Service kind : Complete Main
Default : Да
Forced : Нет

Текст
Идентификатор : 3
Формат : UTF-8
Идентификатор кодека : S_TEXT/UTF8
Идентификатор кодека/Информация : UTF-8 Plain Text
Продолжительность : 1 ч. 39 м.
Битрейт : 1 бит/сек
Count of elements : 12
Размер потока : 762 байт (0%)
Заголовок : Forced
Язык : Russian
Default : Да
Forced : Да

Меню
00:00:00.000 : :de: 01
00:06:16.125 : :de: 02
00:13:36.250 : :de: 03
00:19:10.165 : :de: 04
00:26:32.540 : :de: 05
00:32:40.625 : :de: 06
00:40:52.708 : :de: 07
00:49:06.791 : :de: 08
00:57:53.833 : :de: 09
01:05:32.416 : :de: 10
01:13:20.375 : :de: 11
01:20:56.416 : :de: 12
01:27:17.457 : :de: 13
01:33:48.291 : :de: 14
01:40:12.332 : :de: 15
01:44:33.207 : :de: 16
01:53:45.291 : :de: 17

piratbit.pw



Скачать Спутник через торрент https://i114.fastpic.ru/big/2020/1204/f2/c03f56cfadfbbc916a8a54106f973df2.jpg Скачать фильм Спутник через торрент бесплантно в хорошем качестве Описание: СССР, 1983 год. На землю возвращается космический аппарат, но от людей скрывают, что из двух космонавтов живым возвращается ... 8.7 10 21
Торрент: Зарегистрирован [2020-12-05 08:15] · скачан: 40 раз
Статус: √ проверено
Размер: 2.34 GB
Как cкачать? Как скачать Спутник через торрент | UTorrent

% Раздел Тема Автор DL S | L
Наши новые фильмы 2020 - 2021 [ 2.18 GB ] Спутник [2020 BDRip] [Русский] [] Twi7ter Скачать
17 | 0
Наши новые фильмы 2020 - 2021 [ 1.46 GB ] Спутник [2020 BDRip] [Русский] [] Twi7ter Скачать
16 | 0
Наши фильмы (HD, WEB-DL 720p, 1080p) [ 7.11 GB ] Спутник [2020 BDRip-HEVC 1080p ] [GER Transfer / ] bober100 Скачать
3 | 0
Наши новые фильмы 2020 - 2021 [ 2.18 GB ] Спутник [2020 BDRip] [Русский] [] Twi7ter Скачать
44 | 0
Наши новые фильмы 2020 - 2021 [ 1.46 GB ] Спутник [2020 BDRip] [Русский] [] Twi7ter Скачать
8 | 0
Наши фильмы (HD, WEB-DL 720p, 1080p) [ 12.83 GB ] Спутник [2020 BDRip 1080p] [GER Transfer / ] bober100 Скачать
3 | 0
Наши фильмы (Blu-ray, BD-Remux, HDDVD) [ 30.97 GB ] Спутник [2020 BD Remux 1080p] [GER Transfer / ] bober100 Скачать
1 | 0


Последний раз редактировалось: bober100 (2020-05-24 20:02), всего редактировалось 2 раз(а)

28-11-2019 20:33  

Отключить всю рекламу на сайте

    Дорогой пользователь! Огромная просьба, поблагодарите релизера, оцените раздачу и оставьте свои комментарий, если Вы скачали Спутник через торрент бесплатно! Внесите свою лепту в развитие PiratBit!
    Комментировать посты могут только пользователи прошедшие не сложную регистрацию
    Показать сообщения:    

    Спутник через торрент
    Скачать бесплатно Спутник
    Спутник скачать торрент
    Спутник смотреть онлайн
    Cкачать фильм Спутник бесплатно
    Спутник скачать торрент в хорошем качестве
    Спутник смотреть онлайн бесплатно в хорошем качестве


    Вы не можете начинать темы
    Вы не можете отвечать на сообщения
    Вы не можете редактировать свои сообщения
    Вы не можете удалять свои сообщения
    Вы не можете голосовать в опросах
    Вы не можете прикреплять файлы к сообщениям
    Вы можете скачивать файлы