Ссылка на приватное зеркало нашего сайта всего за 1$. Внимание количество ограничено!!!

2 сезон

iTunes

1 сезон

1

iTunes

iTunes

iTunes

1 сезон

RePack

30

ИГРА 18+

pack

ВАЖНО

!!Акция!!

Alien_RageХит недели

RePack

MK11
pack

Забери бонус

RePack

jed

!!Акция!!

Alien_Rage

RePack

fifa19

RePack

Assassins Creed: Odyssey

RePack

NEED FOR SPEED™ PAYBACK

4 сезон

9 сезон

Бесстыжие 9 сезон

Все сериалы

все сериалы на PB.wtf

RePack

FAR CRY 5
  

Дни жатвы / Days of Heaven (Терренс Малик) [1978, драма, мелодрама, BDRip 720p by msltel] MVO, DVO, 2 x AVO piratbit.pw

Дни жатвы через торрент piratbit.pw

Размер: 5.18 GB | Добавлен: 6 мес. назад | Торрент скачан:2 раза
Скачать  

22-04-2020 04:30 Дни жатвы Скачать торрент  

Название: Дни жатвы
Оригинальное название: Days of Heaven
Год выпуска: 1978
Страна: США
Жанр: драма, мелодрама
Продолжительность: 01:34:00
Перевод: профессиональный многоголосый, профессиональный двухголосый, авторский
Режиссер: Терренс Малик
В ролях: Ричард Гир, Брук Адамс, Сэм Шепард, Линда Мэнз, Роберт Дж. Уилки, Джекки Шултис, Стюарт Марголин, Тимоти Скотт, Джин Белл, Даг Кершоу

О фильме: Действие происходит накануне вступления Америки в Первую мировую войну. Билл, работавший на металлургическом заводе в Чикаго, в результате ссоры, убил человека и находится в бегах. Вместе со своей подругой Эбби и юной сестрой Линдой он скрывается в глуши "техасского выступа", где работает на уборке урожая. (О событиях за кадром рассказывает Линда). Во избежание пересудов Билл с Эбби выдают себя за брата и сестру. Когда за Эбби начинает ухаживать богатый фермер, который, по слухам, неизлечимо болен, и делает ей предложение, Билл даёт согласие на этот брак. Влюблённые рассчитывают после смерти фермера унаследовать его состояние. Однако здоровье фермера оказывается весьма крепким, к тому же Эбби со временем влюбляется в собственного мужа... (Википедия)



Качество: BDRip 720p
Формат: MKV
Видео: MPEG-4 AVC, 6226 Kбит/с, 1280x720, 23.976 Кадр/с
Аудио 1: русский, AC3, 192 kbps, 2 ch, 48 kHz [закадровый многоголосый, HTB+]
Аудио 2: русский, AC3, 192 kbps, 2 ch, 48 kHz [закадровый двухголосый]
Аудио 3: русский, AC3, 448 kbps, 6 ch, 48 kHz [авторский, Сергей Визгунов]
Аудио 4: русский, AC3, 384 kbps, 6 ch, 48 kHz [авторский, Пётр Чайников]
Аудио 5: английский, AC3, 448 kbps, 6 ch, 48 kHz [оригинал]
Субтитры 1: русские
Субтитры 2: английские
Главы/чаптеры
Общее
Уникальный идентификатор : 176184987474544462751679310949097745481 (0x848BFE8B49D1327484E5F3E5C81D2C49)
Полное имя : D:\Video\Дни жатвы.1978.BDRip 720p by msltel.mkv
Формат : Matroska
Версия формата : Version 4
Размер файла : 5,18 Гбайт
Продолжительность : 1 ч. 34 м.
Общий поток : 7 893 Кбит/сек
Название фильма : Rip by msltel
Дата кодирования : UTC 2020-04-22 01:37:51
Программа кодирования : mkvmerge v8.2.0 ('World of Adventure') 64bit
Библиотека кодирования : libebml v1.3.1 + libmatroska v1.4.2

Видео
Идентификатор : 1
Формат : AVC
Формат/Информация : Advanced Video Codec
Профиль формата : High@L4.1
Настройки формата : CABAC / 9 Ref Frames
Параметр CABAC формата : Да
Параметр RefFrames формата : 9 кадров
Идентификатор кодека : V_MPEG4/ISO/AVC
Продолжительность : 1 ч. 34 м.
Битрейт : 6 226 Кбит/сек
Ширина : 1 280 пикселей
Высота : 720 пикселей
Соотношение сторон : 16:9
Режим частоты кадров : Постоянный
Частота кадров : 23,976 (24000/1001) кадра/сек
Цветовое пространство : YUV
Субдискретизация насыщенности : 4:2:0
Битовая глубина : 8 бит
Тип развёртки : Прогрессивная
Бит/(Пиксели*Кадры) : 0.282
Размер потока : 4,09 Гбайт (79%)
Библиотека кодирования : x264 core 159 r2991 1771b55
Настройки программы : cabac=1 / ref=9 / deblock=1:-2:-2 / analyse=0x3:0x113 / me=umh / subme=11 / psy=1 / psy_rd=1.00:0.15 / mixed_ref=1 / me_range=32 / chroma_me=1 / trellis=2 / 8x8dct=1 / cqm=0 / deadzone=21,11 / fast_pskip=0 / chroma_qp_offset=-3 / threads=6 / lookahead_threads=1 / sliced_threads=0 / nr=0 / decimate=1 / interlaced=0 / bluray_compat=0 / constrained_intra=0 / bframes=11 / b_pyramid=2 / b_adapt=2 / b_bias=0 / direct=1 / weightb=1 / open_gop=0 / weightp=2 / keyint=230 / keyint_min=23 / scenecut=40 / intra_refresh=0 / rc_lookahead=40 / rc=crf / mbtree=1 / crf=20.0 / qcomp=0.60 / qpmin=0 / qpmax=69 / qpstep=4 / vbv_maxrate=50000 / vbv_bufsize=62500 / crf_max=0.0 / nal_hrd=none / filler=0 / ip_ratio=1.40 / aq=1:1.00
Язык : English
Default : Да
Forced : Нет

Аудио #1
Идентификатор : 2
Формат : AC-3
Формат/Информация : Audio Coding 3
Коммерческое название : Dolby Digital
Идентификатор кодека : A_AC3
Продолжительность : 1 ч. 33 м.
Вид битрейта : Постоянный
Битрейт : 192 Кбит/сек
Каналы : 2 канала
Channel layout : L R
Частота : 48,0 КГц
Частота кадров : 31,250 кадров/сек (1536 SPF)
Метод сжатия : С потерями
Размер потока : 129 Мбайт (2%)
Заголовок : MVO HTB+
Язык : Russian
Service kind : Complete Main
Default : Да
Forced : Нет

Аудио #2
Идентификатор : 3
Формат : AC-3
Формат/Информация : Audio Coding 3
Коммерческое название : Dolby Digital
Идентификатор кодека : A_AC3
Продолжительность : 1 ч. 33 м.
Вид битрейта : Постоянный
Битрейт : 192 Кбит/сек
Каналы : 2 канала
Channel layout : L R
Частота : 48,0 КГц
Частота кадров : 31,250 кадров/сек (1536 SPF)
Метод сжатия : С потерями
Размер потока : 129 Мбайт (2%)
Заголовок : DVO
Язык : Russian
Service kind : Complete Main
Default : Нет
Forced : Нет

Аудио #3
Идентификатор : 4
Формат : AC-3
Формат/Информация : Audio Coding 3
Коммерческое название : Dolby Digital
Идентификатор кодека : A_AC3
Продолжительность : 1 ч. 33 м.
Вид битрейта : Постоянный
Битрейт : 448 Кбит/сек
Каналы : 6 каналов
Channel layout : L R C LFE Ls Rs
Частота : 48,0 КГц
Частота кадров : 31,250 кадров/сек (1536 SPF)
Метод сжатия : С потерями
Размер потока : 301 Мбайт (6%)
Заголовок : Сергей Визгунов
Язык : Russian
Service kind : Complete Main
Default : Нет
Forced : Нет

Аудио #4
Идентификатор : 5
Формат : AC-3
Формат/Информация : Audio Coding 3
Коммерческое название : Dolby Digital
Идентификатор кодека : A_AC3
Продолжительность : 1 ч. 33 м.
Вид битрейта : Постоянный
Битрейт : 384 Кбит/сек
Каналы : 6 каналов
Channel layout : L R C LFE Ls Rs
Частота : 48,0 КГц
Частота кадров : 31,250 кадров/сек (1536 SPF)
Метод сжатия : С потерями
Размер потока : 258 Мбайт (5%)
Заголовок : Пётр Чайников
Язык : Russian
Service kind : Complete Main
Default : Нет
Forced : Нет

Аудио #5
Идентификатор : 6
Формат : AC-3
Формат/Информация : Audio Coding 3
Коммерческое название : Dolby Digital
Идентификатор кодека : A_AC3
Продолжительность : 1 ч. 34 м.
Вид битрейта : Постоянный
Битрейт : 448 Кбит/сек
Каналы : 6 каналов
Channel layout : L R C LFE Ls Rs
Частота : 48,0 КГц
Частота кадров : 31,250 кадров/сек (1536 SPF)
Метод сжатия : С потерями
Размер потока : 301 Мбайт (6%)
Заголовок : original
Язык : English
Service kind : Complete Main
Default : Нет
Forced : Нет

Текст #1
Идентификатор : 7
Формат : UTF-8
Идентификатор кодека : S_TEXT/UTF8
Идентификатор кодека/Информация : UTF-8 Plain Text
Продолжительность : 1 ч. 30 м.
Битрейт : 44 бит/сек
Count of elements : 460
Размер потока : 29,3 Кбайт (0%)
Заголовок : русские
Язык : Russian
Default : Нет
Forced : Нет

Текст #2
Идентификатор : 8
Формат : UTF-8
Идентификатор кодека : S_TEXT/UTF8
Идентификатор кодека/Информация : UTF-8 Plain Text
Продолжительность : 1 ч. 28 м.
Битрейт : 37 бит/сек
Count of elements : 755
Размер потока : 23,9 Кбайт (0%)
Заголовок : английские
Язык : English
Default : Нет
Forced : Нет

Меню
00:00:00.000 : en:Going places
00:06:29.514 : en:Work
00:09:57.972 : en:Harvest
00:12:15.652 : en:Abby
00:16:27.528 : en:Prognosis
00:19:58.406 : en:The Job Ends
00:25:13.470 : en:Tired
00:29:31.186 : en:Staying On
00:33:25.170 : en:The Future
00:36:23.807 : en:Marriage
00:41:08.841 : en:The Rich
00:44:37.008 : en:Out for a Walk
00:47:27.720 : en:"I don't know you"
00:51:32.172 : en:Flying Circus
00:57:57.099 : en:Business
01:02:14.564 : en:Return
01:07:42.558 : en:Locusts
01:16:17.364 : en:"Nobody's perfect"
01:21:02.900 : en:Hunted
01:26:13.835 : en:New Beginnings
piratbit.pw



Скачать Дни жатвы через торрент https://a.radikal.ru/a15/2004/0d/56b3bc44794b.jpg Скачать фильм Дни жатвы через торрент бесплантно в хорошем качестве О фильме: Действие происходит накануне вступления Америки в Первую мировую войну. Билл, работавший на металлургическом заводе в Чикаго, в ... 5 10 1
Info! Золотая раздача, скачанное не засчитывается.
Торрент: Зарегистрирован [2020-04-22 04:30] · скачан: 2 раз
Статус: √ проверено
Размер: 5.18 GB
Как cкачать? Как скачать Дни жатвы через торрент | qTorrent

% Раздел Тема Автор DL S | L
Классика зарубежного кино [ 12.6 GB ] Дни жатвы / Days of Heaven [1978 BDRip 1080p by msltel] MVO DVO 2 x AVO msltel Скачать
1 | 0
Классика зарубежного кино [ 3.45 GB ] Дни жатвы / Days of Heaven [1978 BDRip-AVC by msltel] MVO DVO 2 x AVO msltel Скачать
1 | 0

28-11-2019 20:33  

Отключить всю рекламу на сайте

    Дорогой пользователь! Огромная просьба, поблагодарите релизера, оцените раздачу и оставьте свои комментарий, если Вы скачали Дни жатвы через торрент бесплатно! Внесите свою лепту в развитие PiratBit!
    Комментировать посты могут только пользователи прошедшие не сложную регистрацию
    Показать сообщения:    

    Дни жатвы через торрент
    Скачать бесплатно Дни жатвы
    Дни жатвы скачать торрент
    Дни жатвы смотреть онлайн
    Cкачать фильм Дни жатвы бесплатно
    Дни жатвы скачать торрент в хорошем качестве
    Дни жатвы смотреть онлайн бесплатно в хорошем качестве


    Вы не можете начинать темы
    Вы не можете отвечать на сообщения
    Вы не можете редактировать свои сообщения
    Вы не можете удалять свои сообщения
    Вы не можете голосовать в опросах
    Вы не можете прикреплять файлы к сообщениям
    Вы можете скачивать файлы