Ссылка на приватное зеркало нашего сайта всего за 1$. Внимание количество ограничено!!!

2 сезон

iTunes

1 сезон

1

2 сезон

2 сезон

iTunes

1 сезон

RePack

30

Новинка

ВАЖНО

ИГРА 18+

pack

RePack

MK11
pack

Забери бонус

RePack

jed

!!Акция!!

Alien_Rage

RePack

fifa19

RePack

Assassins Creed: Odyssey

RePack

NEED FOR SPEED™ PAYBACK

4 сезон

9 сезон

Бесстыжие 9 сезон

Все сериалы

все сериалы на PB.wtf

RePack

FAR CRY 5
  

Удивительное путешествие доктора Дулиттла / Dolittle (Стивен Гейган) [2020 г., фэнтези, комедия, приключения, семейный, HDRip, Дубляж "iTunes"] piratbit.pw

Удивительное путешествие доктора Дулиттла через торрент piratbit.pw

Размер: 716 MB | Добавлен: 7 мес. назад | Торрент скачан:104 раза
Скачать  

16-04-2020 18:30 Удивительное путешествие доктора Дулиттла Скачать торрент  

Удивительное путешествие доктора Дулиттла / Dolittle
Год выпуска: 2020
Страна: США, Китай, Великобритания / Universal Pictures, Dentsu, Perfect World Pictures
Жанр: фэнтези, комедия, приключения, семейный
Продолжительность: 01:41:23
Перевод: Дубляж (iTunes)
Субтитры: Русские форсированные - вшитые

Режиссер: Стивен Гейган

rating

В ролях: Роберт Дауни мл., Антонио Бандерас, Майкл Шин, Джим Бродбент, Джесси Бакли, Гарри Коллетт, Эмма Томпсон, Рами Малек, Джон Сина, Кумэйл Нанджиани

Описание: Семь лет назад доктор Дулиттл, прославленный врач-ветеринар, живущий в викторианской Англии, потерял свою жену. Теперь он ведет затворнический образ жизни, скрывшись за высокими стенами своего поместья. Экзотические животные из его коллекции - его единственная компания.

Но когда неизвестная болезнь становится угрозой для жизни юной королевы, доктору Дулиттлу приходится покинуть свое убежище и отправиться в невероятное путешествие к мифическому острову. В поисках лекарства для королевы он вступит в схватку с беспощадными врагами, познакомится с диковинными существами и будет вынужден проявить недюжинное мужество и смекалку.

Качество: HDRip
Формат: AVI
Видео кодек: DivX
Аудио кодек: MP3
Видео: 640x344 (1.86:1), 23.976 fps, DivX Codec 4.x ~849 kbps avg, 0.16 bit/pixel
Аудио: 48 kHz, MPEG Layer 3, 2 ch, ~128.00 kbps avg
скриншот   скриншот   скриншот   скриншот   скриншот   скриншот   скриншот   скриншот  

Общее
Полное имя : F:\ФИЛЬМЫ\Удивительное путешествие доктора Дулиттла.2020.D.HDRip.avi
Формат : AVI
Формат/Информация : Audio Video Interleave
Размер файла : 716 Мбайт
Продолжительность : 1 ч. 41 м.
Общий поток : 987 Кбит/сек
Программа кодирования : VirtualDubMod 1.5.10.3 | www.virtualdub-fr.org || (build 2550/release)
Библиотека кодирования : VirtualDubMod build 2550/release

Видео
Идентификатор : 0
Формат : MPEG-4 Visual
Профиль формата : Advanced Simple@L5
Настройки формата : BVOP3 / GMC3 / QPel
Параметр BVOP формата : 3
Параметр QPel формата : Да
Параметр GMC формата : 3 точки перехода
Параметр матрицы формата : Default (MPEG)
Идентификатор кодека : DIVX
Идентификатор кодека/Информация : Project Mayo
Идентификатор кодека/Подсказка : DivX 4
Продолжительность : 1 ч. 41 м.
Битрейт : 849 Кбит/сек
Ширина : 640 пикселей
Высота : 344 пикселя
Соотношение сторон : 1,85:1
Частота кадров : 23,976 (24000/1001) кадра/сек
Цветовое пространство : YUV
Субдискретизация насыщенности : 4:2:0
Битовая глубина : 8 бит
Тип развёртки : Прогрессивная
Метод сжатия : С потерями
Бит/(Пиксели*Кадры) : 0.161
Размер потока : 616 Мбайт (86%)
Библиотека кодирования : XviD 1.2.1 (UTC 2008-12-04)

Аудио
Идентификатор : 1
Формат : MPEG Audio
Версия формата : Version 1
Профиль формата : Layer 3
Настройки формата : Joint stereo / MS Stereo
Идентификатор кодека : 55
Идентификатор кодека/Подсказка : MP3
Продолжительность : 1 ч. 41 м.
Вид битрейта : Постоянный
Битрейт : 128 Кбит/сек
Каналы : 2 канала
Частота : 48,0 КГц
Частота кадров : 41,667 кадра/сек (1152 SPF)
Метод сжатия : С потерями
Размер потока : 92,8 Мбайт (13%)
Выравнивание : Соединение по промежуткам
Продолжительность промежутка : 42 мс. (1,00 видеокадр)
Время предзагрузки промежутка : 504 мс.
Библиотека кодирования : LAME3.99r
Настройки программы : -m j -V 4 -q 2 -lowpass 17 -b 128

piratbit.pw



Скачать Удивительное путешествие доктора Дулиттла через торрент http://pic1.kartinco.top/images/12/jokvw.jpg Скачать фильм Удивительное путешествие доктора Дулиттла через торрент бесплантно в хорошем качестве Описание: Семь лет назад доктор Дулиттл, прославленный врач-ветеринар, живущий в викторианской Англии, потерял свою жену. Теперь он ведет ... 10 10 4
Торрент: Зарегистрирован [2020-04-16 18:30] · скачан: 104 раз
Статус: √ проверено
Размер: 716 MB
Как cкачать? Как скачать Удивительное путешествие доктора Дулиттла через торрент | qTorrent

% Раздел Тема Автор DL S | L
Фильмы [HD 720p, 1080p] (Хороший звук DUB, MVO) [ 6.22 GB ] Удивительное путешествие доктора Дулиттла / Dolittle [2020 BDRip 720p] DUB [] - ExKinoRay Mr. Grab Скачать
2 | 0
Фильмы 2019-2020 [DVDrip, WEB-DLRip, HDrip] (DUB, MVO) [ 1.46 GB ] Удивительное путешествие доктора Дулиттла / Dolittle [2020 BDRip-AVC] DUB [] bober100 Скачать
1 | 0
Фильмы 2019-2020 [DVDrip, WEB-DLRip, HDrip] (DUB, MVO) [ 1.46 GB ] Удивительное путешествие доктора Дулиттла / Dolittle [2020 BDRip] - [] Twi7ter Скачать
24 | 0
Ultra HD (UHD: 2K, 4K, 8K) — видео сверхвысокой чёткости [ 47.73 GB ] Удивительное путешествие доктора Дулиттла / Dolittle [2020 UHD BDRemux 2160p ] DUB [] +MVO [HDRezka Studio] bober100 Скачать
1 | 0
Ultra HD (UHD: 2K, 4K, 8K) — видео сверхвысокой чёткости [ 15.33 GB ] Удивительное путешествие доктора Дулиттла / Dolittle [2020 UHD BDRip 2160p] bober100 Скачать
2 | 0
Ultra HD (UHD: 2K, 4K, 8K) — видео сверхвысокой чёткости [ 42.18 GB ] Удивительное путешествие доктора Дулиттла / Dolittle [2020 UHD BDRemux 2160p ] DUB [] bober100 Скачать
1 | 0
Ultra HD (UHD: 2K, 4K, 8K) — видео сверхвысокой чёткости [ 40.85 GB ] Удивительное путешествие доктора Дулиттла / Dolittle [2020 UHD BDRemux 2160p] DUB [] +MVO [HDRezka Studio] bober100 Скачать
1 | 0

28-11-2019 20:33  

Отключить всю рекламу на сайте

    Дорогой пользователь! Огромная просьба, поблагодарите релизера, оцените раздачу и оставьте свои комментарий, если Вы скачали Удивительное путешествие доктора Дулиттла через торрент бесплатно! Внесите свою лепту в развитие PiratBit!
    Комментировать посты могут только пользователи прошедшие не сложную регистрацию
    Показать сообщения:    

    Удивительное путешествие доктора Дулиттла через торрент
    Скачать бесплатно Удивительное путешествие доктора Дулиттла
    Удивительное путешествие доктора Дулиттла скачать торрент
    Удивительное путешествие доктора Дулиттла смотреть онлайн
    Cкачать фильм Удивительное путешествие доктора Дулиттла бесплатно
    Удивительное путешествие доктора Дулиттла скачать торрент в хорошем качестве
    Удивительное путешествие доктора Дулиттла смотреть онлайн бесплатно в хорошем качестве


    Вы не можете начинать темы
    Вы не можете отвечать на сообщения
    Вы не можете редактировать свои сообщения
    Вы не можете удалять свои сообщения
    Вы не можете голосовать в опросах
    Вы не можете прикреплять файлы к сообщениям
    Вы можете скачивать файлы