Marvel's Avengers Deluxe Edition (супер цена) 159р. Внимание количество ограничено!!!

2 сезон

iTunes

iTunes

1

iTunes

iTunes

iTunes

WEBRip

iTunes

30
pack

Новость дня

ВАЖНО

!!Акция!!

Alien_RageХит недели

RePack

Horizon Zero Dawn

ИГРА 18+

pack

RePack

jed

!!Акция!!

Alien_Rage

RePack

fifa19

RePack

Assassins Creed: Odyssey

RePack

NEED FOR SPEED™ PAYBACK

4 сезон

9 сезон

Бесстыжие 9 сезон

Все сериалы

все сериалы на PB.wtf

RePack

FAR CRY 5
  

Отель «Белград» (Константин Статский) [2020, Комедия, мелодрама, WEB-DLRip 720p] [iTunes] - ExKinoRay piratbit.pw

Отель «Белград» через торрент piratbit.pw

Раздают: 306 [ 3 MB/s ] Качают: 6 [ 4 MB/s ]
Размер: 3 GB | Добавлен: 5 мес. 5 д. назад | Торрент скачан:322 раза
Скачать  

13-04-2020 23:22 Отель «Белград» Скачать торрент  

Название: Отель «Белград»
Год выхода: 2020
Жанр: Комедия, мелодрама
Режиссер: Константин Статский
В ролях: Милош Бикович, Диана Пожарская, Борис Дергачев, Александра Кузенкина, Любомир Бандович, Елизавета Орашанин, Егор Корешков

Описание:
Паша, сербский сердцеед и весельчак – хозяин пятизвездочного отеля в Белграде. Он живет, не зная бед, пока однажды совершенно случайно не портит новое – многомиллионное! – приобретение коллекционера-мафиози. В уплату долга криминальный босс заставляет Пашу жениться на своей дочке. Девушка начинает рьяно готовиться к свадьбе с красавчиком отельером, когда Паша после четырехлетней разлуки неожиданно сталкивается с Дашей, своей русской любовью. В романтичной атмосфере древнего города чувства между ними готовы вспыхнуть вновь…если бы не будущий тесть, настоящий муж, слепой дед и друг-банкрот!



Страна: Россия
Студия: Yellow, Black and White, Киностудия «Архангел Студио»
Продолжительность: 01:45:58
Язык: Русский + проф. многоголосый на сербскую речь. | iTunes

Формат: MKV
Качество: WEB-DLRip 720p
Видео: MPEG-4 AVC, 1280x536 (2.40:1), 24.000 fps, 3584 Kbps, 0.218 bit/pixel
Аудио : 48 kHz, AC3, 5.1, 384 Kbps | RUS |
General
Unique ID : 183925533617523034970622591816668762776 (0x8A5EC4EF159D302DAF0AF9818DC35298)
Complete name : F:\Otel.Belgrad.2020.WEB-DL.720.ExKinoRay.mkv
Format : Matroska
Format version : Version 2
File size : 3.00 GiB
Duration : 1 h 45 min
Overall bit rate : 4 049 kb/s
Movie name : Отель Белград 2020 from ExKinoRay
Encoded date : UTC 2020-04-13 21:18:37
Writing application : mkvmerge v5.6.0 ('Kenya Kane') built on May 27 2012 16:44:04
Writing library : libebml v1.2.3 + libmatroska v1.3.0

Video
ID : 1
Format : AVC
Format/Info : Advanced Video Codec
Format profile : High@L4.1
Format settings, CABAC : Yes
Format settings, ReFrames : 12 frames
Codec ID : V_MPEG4/ISO/AVC
Duration : 1 h 45 min
Bit rate : 3 584 kb/s
Width : 1 280 pixels
Height : 536 pixels
Display aspect ratio : 2.40:1
Frame rate mode : Constant
Frame rate : 24.000 FPS
Color space : YUV
Chroma subsampling : 4:2:0
Bit depth : 8 bits
Scan type : Progressive
Bits/(Pixel*Frame) : 0.218
Stream size : 2.65 GiB (89%)
Title : Enigma
Writing library : x264 core 152 r2851 ba24899
Encoding settings : cabac=1 / ref=12 / deblock=1:-2:-2 / analyse=0x3:0x113 / me=umh / subme=10 / psy=1 / psy_rd=1.05:0.07 / mixed_ref=1 / me_range=32 / chroma_me=1 / trellis=2 / 8x8dct=1 / cqm=0 / deadzone=21,11 / fast_pskip=0 / chroma_qp_offset=-3 / threads=12 / lookahead_threads=3 / sliced_threads=0 / nr=0 / decimate=0 / interlaced=0 / bluray_compat=0 / constrained_intra=0 / bframes=10 / b_pyramid=2 / b_adapt=2 / b_bias=0 / direct=1 / weightb=1 / open_gop=0 / weightp=2 / keyint=240 / keyint_min=24 / scenecut=40 / intra_refresh=0 / rc=crf / mbtree=0 / crf=17.0 / qcomp=0.60 / qpmin=0 / qpmax=51 / qpstep=4 / ip_ratio=1.40 / pb_ratio=1.30 / aq=1:1.00
Language : English
Default : Yes
Forced : No
Color range : Limited
Color primaries : BT.709
Transfer characteristics : BT.709
Matrix coefficients : BT.709

Audio
ID : 2
Format : AC-3
Format/Info : Audio Coding 3
Mode extension : CM (complete main)
Format settings, Endianness : Big
Codec ID : A_AC3
Duration : 1 h 45 min
Bit rate mode : Constant
Bit rate : 384 kb/s
Channel(s) : 6 channels
Channel positions : Front: L C R, Side: L R, LFE
Sampling rate : 48.0 kHz
Frame rate : 31.250 FPS (1536 spf)
Compression mode : Lossy
Stream size : 291 MiB (9%)
Title : iTunes
Language : Russian
Default : Yes
Forced : No

Menu
00:00:00.000 : ru:Глава 1
00:03:31.750 : ru:Глава 2
00:11:44.708 : ru:Глава 3
00:21:10.874 : ru:Глава 4
00:26:52.665 : ru:Глава 5
00:32:13.248 : ru:Глава 6
00:41:07.123 : ru:Глава 7
00:46:33.873 : ru:Глава 8
00:52:28.706 : ru:Глава 9
01:01:54.997 : ru:Глава 10
01:15:12.913 : ru:Глава 11
01:21:52.788 : ru:Глава 12
01:28:07.788 : ru:Глава 13
01:40:11.538 : ru:Глава 14


Релиз от:

Автор релиза: piratbit.pw



Скачать Отель «Белград» через торрент https://d.radikal.ru/d22/2004/53/c89e184f6b5c.png Скачать фильм Отель «Белград» через торрент бесплантно в хорошем качестве Описание: Паша, сербский сердцеед и весельчак – хозяин пятизвездочного отеля в Белграде. Он живет, не зная бед, пока однажды совершенно ... 8.6 10 7
Info! Золотая раздача, скачанное не засчитывается.
Торрент: Зарегистрирован [2020-04-13 23:22] · скачан: 322 раз
Статус: √ проверено
Размер: 3 GB
Как cкачать? Как скачать Отель «Белград» через торрент | qTorrent

28-11-2019 20:33  

Отключить всю рекламу на сайте

15-04-2020 03:55 Отель «Белград» Скачать торрент  

кено шлакpiratbit.pw



    Дорогой пользователь! Огромная просьба, поблагодарите релизера, оцените раздачу и оставьте свои комментарий, если Вы скачали Отель «Белград» через торрент бесплатно! Внесите свою лепту в развитие PiratBit!
    Комментировать посты могут только пользователи прошедшие не сложную регистрацию
    Показать сообщения:    

    Отель «Белград» через торрент
    Скачать бесплатно Отель «Белград»
    Отель «Белград» скачать торрент
    Отель «Белград» смотреть онлайн
    Cкачать фильм Отель «Белград» бесплатно
    Отель «Белград» скачать торрент в хорошем качестве
    Отель «Белград» смотреть онлайн бесплатно в хорошем качестве


    Вы не можете начинать темы
    Вы не можете отвечать на сообщения
    Вы не можете редактировать свои сообщения
    Вы не можете удалять свои сообщения
    Вы не можете голосовать в опросах
    Вы не можете прикреплять файлы к сообщениям
    Вы можете скачивать файлы