Ссылка на приватное зеркало нашего сайта всего за 1$. Внимание количество ограничено!!!

2 сезон

iTunes

1 сезон

1

2 сезон

2 сезон

iTunes

1 сезон

RePack

30

Новинка

ВАЖНО

ИГРА 18+

pack

RePack

MK11
pack

Забери бонус

RePack

jed

!!Акция!!

Alien_Rage

RePack

fifa19

RePack

Assassins Creed: Odyssey

RePack

NEED FOR SPEED™ PAYBACK

4 сезон

9 сезон

Бесстыжие 9 сезон

Все сериалы

все сериалы на PB.wtf

RePack

FAR CRY 5
  

Джентльмены / The Gentlemen (Гай Ричи) [2019, боевик, комедия, криминал, BDRip-AVC] Dub [iTunes] piratbit.pw

Джентльмены через торрент piratbit.pw

Раздают: 387 [ 676 KB/s ] Качают: 6 [ 12 KB/s ]
Размер: 1.37 GB | Добавлен: 7 мес. назад | Торрент скачан:1001 раз
Скачать  

12-04-2020 06:19 Джентльмены Скачать торрент  

Джентльмены
The Gentlemen

«Criminal. Class»

Страна: Великобритания, США
Жанр: боевик, комедия, криминал
Год выпуска: 2019
Продолжительность: 01:53:40

Перевод: Профессиональный (полное дублирование) [CineLab SoundMix | iTunes]
Субтитры: русские (форсированные, полные)
Оригинальная аудиодорожка: нет

Режиссер: Гай Ричи / Guy Ritchie

В ролях: Мэттью МакКонахи, Чарли Ханнэм, Генри Голдинг, Хью Грант, Мишель Докери, Джереми Стронг, Эдди Марсан, Джейсон Вонг, Колин Фаррелл, Лайн Рени

Описание: Один ушлый американец ещё со студенческих лет приторговывал наркотиками, а теперь придумал схему нелегального обогащения с использованием поместий обедневшей английской аристократии и очень неплохо на этом разбогател. Другой пронырливый журналист приходит к Рэю, правой руке американца, и предлагает тому купить киносценарий, в котором подробно описаны преступления его босса при участии других представителей лондонского криминального мира - партнёра-еврея, китайской диаспоры, чернокожих спортсменов и даже русского олигарха.



Релиз:

Автор рипа: stalkerok

Сэмпл

Качество видео: BDRip-AVC | Исходник: The.Gentlemen.2019.BluRay.1080p.TrueHD.Atmos.7.1.AVC.REMUX-FraMeSToR
Формат видео: MKV
Видео кодек: AVC
Аудио кодек: AC3
Видео: AVC, 1343 Кбит/сек, 960x402 (2.40:1), 23,976 кадр/сек
Аудио: AC3, 384 Кбит/сек, 48 КГц, 5.1 - русский
Навигация по главам: есть
---[Information] [11.04.2020 22:28:24] x264 [info]: frame I:1578 Avg QP:15.78 size: 51489
---[Information] [11.04.2020 22:28:24] x264 [info]: frame P:32794 Avg QP:17.47 size: 16036
---[Information] [11.04.2020 22:28:24] x264 [info]: frame B:129146 Avg QP:20.26 size: 4166

General
Unique ID : 4921034214655617169785133602747210491 (0x3B3C1B815493DAAEE11EC98849C5AFB)
Complete name : C:\temp\The Gentlemen\The.Gentlemen.2019.BDRip.x264.Rus.stalkerok.New-Team.mkv
Format : Matroska
Format version : Version 4 / Version 2
File size : 1.37 GiB
Duration : 1 h 53 min
Overall bit rate : 1 729 kb/s
Movie name : The Gentlemen (2019) | Rip by stalkerok
Encoded date : UTC 2020-04-12 05:30:51
Writing application : mkvmerge v44.0.0 ('Domino') 64-bit
Writing library : libebml v1.3.10 + libmatroska v1.5.2

Video
ID : 1
Format : AVC
Format/Info : Advanced Video Codec
Format profile : High@L4.1
Format settings, CABAC : Yes
Format settings, ReFrames : 12 frames
Codec ID : V_MPEG4/ISO/AVC
Duration : 1 h 53 min
Bit rate : 1 343 kb/s
Width : 960 pixels
Height : 402 pixels
Display aspect ratio : 2.40:1
Frame rate mode : Constant
Frame rate : 23.976 FPS
Color space : YUV
Chroma subsampling : 4:2:0
Bit depth : 8 bits
Scan type : Progressive
Bits/(Pixel*Frame) : 0.145
Stream size : 1.07 GiB (78%)
Title : The Gentlemen (2019) | Rip by stalkerok
Writing library : x264 core 159 r2991 1771b55
Encoding settings : cabac=1 / ref=12 / deblock=1:-3:-2 / analyse=0x3:0x133 / me=umh / subme=10 / psy=1 / psy_rd=1.00:0.00 / mixed_ref=1 / me_range=32 / chroma_me=1 / trellis=2 / 8x8dct=1 / cqm=0 / deadzone=21,11 / fast_pskip=0 / chroma_qp_offset=-2 / threads=12 / lookahead_threads=3 / sliced_threads=0 / nr=0 / decimate=1 / interlaced=0 / bluray_compat=0 / constrained_intra=0 / bframes=14 / b_pyramid=2 / b_adapt=2 / b_bias=0 / direct=3 / weightb=1 / open_gop=0 / weightp=2 / keyint=240 / keyint_min=23 / scenecut=40 / intra_refresh=0 / rc_lookahead=60 / rc=crf / mbtree=0 / crf=18.4 / qcomp=0.65 / qpmin=0 / qpmax=69 / qpstep=4 / vbv_maxrate=50000 / vbv_bufsize=62500 / crf_max=0.0 / nal_hrd=none / filler=0 / ip_ratio=1.40 / pb_ratio=1.30 / aq=3:0.85
Default : Yes
Forced : No

Audio
ID : 2
Format : AC-3
Format/Info : Audio Coding 3
Mode extension : CM (complete main)
Format settings, Endianness : Big
Codec ID : A_AC3
Duration : 1 h 53 min
Bit rate mode : Constant
Bit rate : 384 kb/s
Channel(s) : 6 channels
Channel positions : Front: L C R, Side: L R, LFE
Sampling rate : 48.0 kHz
Frame rate : 31.250 FPS (1536 spf)
Compression mode : Lossy
Stream size : 312 MiB (22%)
Title : Dub iTunes
Language : Russian
Default : Yes
Forced : No

Text #1
ID : 3
Format : UTF-8
Codec ID : S_TEXT/UTF8
Codec ID/Info : UTF-8 Plain Text
Duration : 1 h 45 min
Bit rate : 4 b/s
Count of elements : 46
Stream size : 3.37 KiB (0%)
Title : Forced
Language : Russian
Default : Yes
Forced : No

Text #2
ID : 4
Format : UTF-8
Codec ID : S_TEXT/UTF8
Codec ID/Info : UTF-8 Plain Text
Duration : 1 h 47 min
Bit rate : 127 b/s
Count of elements : 1711
Stream size : 101 KiB (0%)
Title : Full
Language : Russian
Default : No
Forced : No

Menu
00:00:00.000 : en:Chapter 01
00:04:27.100 : en:Chapter 02
00:08:16.413 : en:Chapter 03
00:13:42.780 : en:Chapter 04
00:19:21.494 : en:Chapter 05
00:24:49.988 : en:Chapter 06
00:30:23.530 : en:Chapter 07
00:37:17.944 : en:Chapter 08
00:41:55.430 : en:Chapter 09
00:48:38.874 : en:Chapter 10
00:56:51.199 : en:Chapter 11
01:03:34.102 : en:Chapter 12
01:08:45.038 : en:Chapter 13
01:14:18.204 : en:Chapter 14
01:19:05.991 : en:Chapter 15
01:24:30.023 : en:Chapter 16
01:29:24.776 : en:Chapter 17
01:34:21.114 : en:Chapter 18
01:40:11.130 : en:Chapter 19
01:48:37.511 : en:Chapter 20
piratbit.pw



Скачать Джентльмены через торрент http://i6.imageban.ru/out/2017/09/18/2ff75c0c358795c5946784cc1680714d.png Скачать фильм Джентльмены через торрент бесплантно в хорошем качестве Описание: Один ушлый американец ещё со студенческих лет приторговывал наркотиками, а теперь придумал схему нелегального обогащения с ... 9.5 10 19
Info! Золотая раздача, скачанное не засчитывается.
Торрент: Зарегистрирован [2020-04-12 06:19] · скачан: 1 001 раз
Статус: √ проверено
Размер: 1.37 GB
Как cкачать? Как скачать Джентльмены через торрент | qTorrent

% Раздел Тема Автор DL S | L
Ultra HD (UHD: 2K, 4K, 8K) — видео сверхвысокой чёткости [ 53.19 GB ] Джентльмены / The Gentlemen [2019 UHD BDRemux 2160p] DUB bober100 Скачать
5 | 1
Официальные cаундтреки к зарубежным фильмам [ 106 MB ] OST - Джентльмены / The Gentlemen 2019 / MP3 / 320 kbps / Score bober100 Скачать
3 | 0
Фильмы 2019-2020 [DVDrip, WEB-DLRip, HDrip] (DUB, MVO) [ 2.82 GB ] Джентльмены / The Gentlemen [2019 WEB-DLRip-AVC] () + [AVO] killermax2013 Скачать
15 | 0
Фильмы (HD 720p, 1080p) (48-60 fps) [ 3.93 GB ] Джентльмены / The Gentlemen [2019 . BDRip 1080p / 60 FPS AVO Яроцкий] dd2d3 Скачать
5 | 0
Фильмы 2019-2020 [DVDrip, WEB-DLRip, HDrip] (DUB, MVO) [ 2.2 GB ] Джентльмены / The Gentlemen [2019 BDRip-AVC] Dub sokol_ok Скачать
952 | 20
Фильмы с авторской озвучкой [ 1.46 GB ] Джентльмены / The Gentlemen [2019 WEB-DLRip] [AVO] killermax2013 Скачать
11 | 0
Фильмы 2019-2020 (Звук TS, Cam, VO, DVO) [ 2.89 GB ] Джентльмены / The Gentlemen [2019 HDRip-AVC] [DVO] killermax2013 Скачать
21 | 0

28-11-2019 20:33  

Отключить всю рекламу на сайте

01-06-2020 04:09 Джентльмены Скачать торрент  

норм кинцоpiratbit.pw



09-06-2020 15:10 Джентльмены Скачать торрент  

bomba 9/10piratbit.pw



16-07-2020 04:04 Джентльмены Скачать торрент  

шляпа голимая piratbit.pw



17-07-2020 18:54 Джентльмены Скачать торрент  

без должного перевода guy ritchie см-бесполезноpiratbit.pw



    Дорогой пользователь! Огромная просьба, поблагодарите релизера, оцените раздачу и оставьте свои комментарий, если Вы скачали Джентльмены через торрент бесплатно! Внесите свою лепту в развитие PiratBit!
    Комментировать посты могут только пользователи прошедшие не сложную регистрацию
    Показать сообщения:    

    Джентльмены через торрент
    Скачать бесплатно Джентльмены
    Джентльмены скачать торрент
    Джентльмены смотреть онлайн
    Cкачать фильм Джентльмены бесплатно
    Джентльмены скачать торрент в хорошем качестве
    Джентльмены смотреть онлайн бесплатно в хорошем качестве


    Вы не можете начинать темы
    Вы не можете отвечать на сообщения
    Вы не можете редактировать свои сообщения
    Вы не можете удалять свои сообщения
    Вы не можете голосовать в опросах
    Вы не можете прикреплять файлы к сообщениям
    Вы можете скачивать файлы