Death Stranding+DLC+АВТОАКТИВАЦИЯ

iTunes

iTunes

iTunes

1

iTunes

iTunes

iTunes

iTunes

iTunes

30
pack

$ от Little Big

ВАЖНО

!!Акция!!

Alien_RageХит недели

RePack

Resident Evil 21

ИГРА 18+

pack

RePack

jed

!!Акция!!

Alien_Rage

RePack

fifa19

RePack

Assassins Creed: Odyssey

RePack

NEED FOR SPEED™ PAYBACK

4 сезон

9 сезон

Бесстыжие 9 сезон

Все сериалы

все сериалы на PB.wtf

RePack

FAR CRY 5
  

Абсолютно точно / Верняк / The Sure Thing (Роб Райнер) [1985, драма, мелодрама, комедия, BDRip 720p] [GER Transfer] DVO, AVO - KORSAR piratbit.pw

Абсолютно точно через торрент piratbit.pw

Размер: 5.98 GB | Добавлен: 3 мес. 4 д. назад | Торрент скачан:19 раз
Скачать  

11-04-2020 11:09 Абсолютно точно Скачать торрент  

Абсолютно точно / Верняк / The Sure Thing
Страна: США
Жанр: драма, мелодрама, комедия
Год выпуска: 1985
Продолжительность: 01:34:55
Перевод: Профессиональный (двухголосый, закадровый), Авторский
Субтитры: русские, английские
Режиссер: Роб Райнер / Rob Reiner
В ролях: Джон Кьюсак (Walter «Gib» Gibson), Дафна Зунига (Alison Bradbury), Энтони Эдвардс (Lance), Бойд Гейнс (Jason), Тим Роббинс (Gary Cooper), Лиза Джейн Перски (Mary Ann Webster), Вивека Линдфорс (Professor Taub), Николетт Шеридан (The Sure Thing), Марсия Кристи (Julie), Роберт Энтони Маркуччи (Bobby), Сара Бакстон (Sharon), Lorrie Lightle (Lucy)
Описание: Гиб - симпатичный, умный интересный парень с хорошим чувством юмора, но в любви ему не везет. Почему-то девушки, которые учатся с Гибом на первом курсе колледжа, не воспринимают парня всерьёз.


Качество: BDRip 720p
Контейнер: MKV
Видео: AVC, 1280x720 (16:9), 8000 kbps, 23,976 fps, 0,362 bpp
Аудио №1: русский / AC3 / 2.0 / 48 kHz / 192 kbps / DVO ( Elrom )
Аудио №2: русский / AC3 / 2.0 / 48 kHz / 192 kbps / AVO ( Алексеев )
Аудио №3: английский / AC3 / 2.0 / 48 kHz / 192 kbps / BluRay
Аудио №4: английский / AC3 / 5.1 / 48 kHz / 448 kbps / DVD
Навигация по главам: есть
*********************************************************
x264 [info]: frame I:908 Avg QP:17.07 size:121895
x264 [info]: frame P:25522 Avg QP:18.53 size: 68953
x264 [info]: frame B:110124 Avg QP:20.15 size: 34687
*********************************************************
Формат : Matroska
Версия формата : Version 2
Размер файла : 5,98 Гбайт
Продолжительность : 1 ч. 34 м.
Общий поток : 9020 Кбит/сек
Название фильма : = Абсолютно точно / Верняк / The Sure Thing (1985) BDRip 720p - KORSAR =
Дата кодирования : UTC 2020-04-01 15:45:38
Программа кодирования : mkvmerge v5.8.0 ('No Sleep / Pillow') built on Sep 2 2012 15:37:04
Библиотека кодирования : libebml v1.2.3 + libmatroska v1.3.0
Attachment : Yes

Видео
Идентификатор : 1
Формат : AVC
Формат/Информация : Advanced Video Codec
Профиль формата : High@L4.1
Параметр CABAC формата : Да
Параметр ReFrames формата : 9 кадров
Идентификатор кодека : V_MPEG4/ISO/AVC
Продолжительность : 1 ч. 34 м.
Битрейт : 8000 Кбит/сек
Ширина : 1280 пикселей
Высота : 720 пикселей
Соотношение сторон : 16:9
Режим частоты кадров : Постоянный
Частота кадров : 23,976 кадра/сек
Цветовое пространство : YUV
Субдискретизация насыщенности : 4:2:0
Битовая глубина : 8 бит
Тип развёртки : Прогрессивная
Бит/(Пиксели*Кадры) : 0.362
Размер потока : 5,18 Гбайт (87%)
Заголовок : Абсолютно точно / Верняк / The Sure Thing (1985) BDRip 720p - KORSAR
Библиотека кодирования : x264 core 158 r2984 3759fcb
Настройки программы : cabac=1 / ref=9 / deblock=1:-3:-2 / analyse=0x3:0x113 / me=umh / subme=11 / psy=1 / psy_rd=1.02:0.10 / mixed_ref=1 / me_range=48 / chroma_me=1 / trellis=2 / 8x8dct=1 / cqm=0 / deadzone=21,11 / fast_pskip=0 / chroma_qp_offset=-3 / threads=12 / lookahead_threads=3 / sliced_threads=0 / nr=0 / decimate=0 / interlaced=0 / bluray_compat=0 / constrained_intra=0 / bframes=12 / b_pyramid=2 / b_adapt=2 / b_bias=0 / direct=3 / weightb=1 / open_gop=0 / weightp=2 / keyint=240 / keyint_min=23 / scenecut=40 / intra_refresh=0 / rc_lookahead=60 / rc=2pass / mbtree=0 / bitrate=8000 / ratetol=1.0 / qcomp=0.64 / qpmin=0 / qpmax=69 / qpstep=4 / cplxblur=20.0 / qblur=0.5 / vbv_maxrate=50000 / vbv_bufsize=62500 / nal_hrd=none / filler=0 / ip_ratio=1.25 / pb_ratio=1.30 / aq=3:1.00
Язык : English
Default : Да
Forced : Нет
Основные цвета : BT.709
Характеристики трансфера : BT.709
Коэффициенты матрицы : BT.709

Аудио #1
Идентификатор : 2
Формат : AC-3
Формат/Информация : Audio Coding 3
Расширение режима : CM (complete main)
Параметр Endianness формата : Big
Идентификатор кодека : A_AC3
Продолжительность : 1 ч. 34 м.
Вид битрейта : Постоянный
Битрейт : 192 Кбит/сек
Каналы : 2 канала
Расположение каналов : Front: L R
Частота : 48,0 КГц
Битовая глубина : 16 бит
Метод сжатия : С потерями
Размер потока : 130 Мбайт (2%)
Заголовок : DVO ( Elrom )
Язык : Russian
Default : Да
Forced : Нет

Аудио #2
Идентификатор : 3
Формат : AC-3
Формат/Информация : Audio Coding 3
Расширение режима : CM (complete main)
Параметр Endianness формата : Big
Идентификатор кодека : A_AC3
Продолжительность : 1 ч. 34 м.
Вид битрейта : Постоянный
Битрейт : 192 Кбит/сек
Каналы : 2 канала
Расположение каналов : Front: L R
Частота : 48,0 КГц
Битовая глубина : 16 бит
Метод сжатия : С потерями
Размер потока : 130 Мбайт (2%)
Заголовок : AVO ( Алексеев )
Язык : Russian
Default : Нет
Forced : Нет

Аудио #3
Идентификатор : 4
Формат : AC-3
Формат/Информация : Audio Coding 3
Расширение режима : CM (complete main)
Параметр Endianness формата : Big
Идентификатор кодека : A_AC3
Продолжительность : 1 ч. 34 м.
Вид битрейта : Постоянный
Битрейт : 192 Кбит/сек
Каналы : 2 канала
Расположение каналов : Front: L R
Частота : 48,0 КГц
Битовая глубина : 16 бит
Метод сжатия : С потерями
Размер потока : 130 Мбайт (2%)
Заголовок : BluRay
Язык : English
Default : Нет
Forced : Нет

Аудио #4
Идентификатор : 5
Формат : AC-3
Формат/Информация : Audio Coding 3
Расширение режима : CM (complete main)
Параметр Endianness формата : Big
Идентификатор кодека : A_AC3
Продолжительность : 1 ч. 34 м.
Вид битрейта : Постоянный
Битрейт : 448 Кбит/сек
Каналы : 6 каналов
Расположение каналов : Front: L C R, Side: L R, LFE
Частота : 48,0 КГц
Битовая глубина : 16 бит
Метод сжатия : С потерями
Размер потока : 304 Мбайт (5%)
Заголовок : DVD
Язык : English
Default : Нет
Forced : Нет

Текст #1
Идентификатор : 6
Формат : UTF-8
Идентификатор кодека : S_TEXT/UTF8
Идентификатор кодека/Информация : UTF-8 Plain Text
Язык : Russian
Default : Нет
Forced : Нет

Текст #2
Идентификатор : 7
Формат : UTF-8
Идентификатор кодека : S_TEXT/UTF8
Идентификатор кодека/Информация : UTF-8 Plain Text
Язык : English
Default : Нет
Forced : Нет

Меню
00:00:00.000 : en:Chapter 01
00:09:09.715 : en:Chapter 02
00:16:52.636 : en:Chapter 03
00:23:36.206 : en:Chapter 04
00:31:29.178 : en:Chapter 05
00:39:23.194 : en:Chapter 06
00:49:20.374 : en:Chapter 07
00:55:39.044 : en:Chapter 08
01:03:22.840 : en:Chapter 09
01:11:56.729 : en:Chapter 10
01:18:38.797 : en:Chapter 11
01:27:59.107 : en:Chapter 12

piratbit.pw



Скачать Абсолютно точно через торрент https://img15.lostpic.net/2020/04/01/8474f90ebf226662edbb5863defaf592.jpg Скачать фильм Абсолютно точно через торрент бесплантно в хорошем качестве Описание: Гиб - симпатичный, умный интересный парень с хорошим чувством юмора, но в любви ему не везет. Почему-то девушки, которые учатся с ... 10 10 1
Торрент: Зарегистрирован [2020-04-11 11:09] · скачан: 19 раз
Статус: √ проверено
Размер: 5.98 GB
Как cкачать? Как скачать Абсолютно точно через торрент | qTorrent

28-11-2019 20:33  

Отключить всю рекламу на сайте

11-04-2020 11:10 Абсолютно точно Скачать торрент  

Кому интересно, сравниваем.piratbit.pw



03-06-2020 16:21 Абсолютно точно Скачать торрент  

Изумительный фильм. Отличный дуэт. Никакой грязи, юмора типичных комедия того времени, ничего из "горячей жевательной резинки" и т.п..piratbit.pw



    Дорогой пользователь! Огромная просьба, поблагодарите релизера, оцените раздачу и оставьте свои комментарий, если Вы скачали Абсолютно точно через торрент бесплатно! Внесите свою лепту в развитие PiratBit!
    Комментировать посты могут только пользователи прошедшие не сложную регистрацию
    Показать сообщения:    

    Абсолютно точно через торрент
    Скачать бесплатно Абсолютно точно
    Абсолютно точно скачать торрент
    Абсолютно точно смотреть онлайн
    Cкачать фильм Абсолютно точно бесплатно
    Абсолютно точно скачать торрент в хорошем качестве
    Абсолютно точно смотреть онлайн бесплатно в хорошем качестве


    Вы не можете начинать темы
    Вы не можете отвечать на сообщения
    Вы не можете редактировать свои сообщения
    Вы не можете удалять свои сообщения
    Вы не можете голосовать в опросах
    Вы не можете прикреплять файлы к сообщениям
    Вы можете скачивать файлы