1 сезон

1 сезон

iTunes

1

КиноПоиск HD

Кинопоиск HD

iTunes

13

1 сезон

RePack

30

Новинка

ВАЖНО

ИГРА 18+

pack

RePack

MK11
pack

Легкие деньги

RePack

jed

RePack

fifa19

RePack

RDR2

RePack

NEED FOR SPEED™ PAYBACK

4 сезон

9 сезон

Бесстыжие 9 сезон

Все сериалы

все сериалы на PB.wtf

RePack

FAR CRY 5
  
Magnet ссылка

То, что ты делаешь / That Thing You Do! (Том Хэнкс) [1996, драма, комедия, музыка, BDRip 1080p by msltel] 2 x AVO | Расширенная версия piratbit.pw

То, что ты делаешь через торрент piratbit.pw

Размер: 23.56 GB | Добавлен: 1 год назад | Торрент скачан:3 раза
Скачать  

11-04-2020 06:06 То, что ты делаешь Скачать торрент  

Название: То, что ты делаешь
Оригинальное название: That Thing You Do!
Год выпуска: 1996
Страна: США
Жанр: драма, комедия, музыка
Продолжительность: 02:27:33
Перевод: авторский
Режиссер: Том Хэнкс
В ролях: Том Эверетт Скотт, Лив Тайлер, Джонатон Шаех, Стив Зан, Итэн Эмбри, Том Хэнкс, Шарлиз Терон, Обба Бабатунде, Джованни Рибизи, Крис Эллис, Алекс Рокко, Билл Коббс, Питер Сколари, Рита Уилсон, Крис Айзек, Кевин Поллак, Роберт Торти, Чейль Персивал, Холмс Осборн, Клаудия Стеделин, Доун Макси, Джек Мило, Кейт Нёбер, Ли Эверетт, Шон Уэйлен, Клинт Ховард, Сара Коскофф, Марк Бреттшнейдер, Кэтлин Кинмонт, Уоррен Берлинджер, Клайв Розенгрен, Бриттни Пауэлл, Джонатан Демме, Эрика Грин, Дэйв Оливер, Трэйси Рейнер, Бэрри Собель, Пол Фиг, Гедде Ватанабе, Майкл П. Бирн, Дик Кормэн

О фильме: 1964 год. Молодой продавец магазина бытовой техники соглашается подменить получившего травму барабанщика группы на местном конкурсе молодых талантов. Это событие оборачивается космическим взлётом четырёх новых звезд. Быстрее чем вы успеете произнести «то, что ты делаешь», менеджер студии грамзаписи записывает музыку ребят и в одночасье делает их знаменитыми, ибо их композиция стремительно поднялась на первую строчку хит-парадов...



Качество: BDRip 1080p
Формат: MKV
Видео: MPEG-4 AVC, 19.6 Mбит/с, 1920x1036, 23.976 кадр/с
Аудио 1: русский, DTS, 1509 kbps, 6 ch, 48 kHz [авторский, Юрий Сербин]
Аудио 2: русский, AC3, 256 kbps, 2 ch, 48 kHz [авторский, Алексей Яковлев]
Аудио 3: английский, DTS, 1509 kbps, 6 ch, 48 kHz [оригинал]
Субтитры 2: английские
Главы/чаптеры
рамка I:1238 Avg QP: 16.37 размер: 231979
рамка P: 36394 Avg QP:19.38 размер:129523
рамка B: 174640 Avg QP:20.90 размер: 95434

Общее
Уникальный идентификатор : 200868074156316522245851787867208866520 (0x971DC8ACF178E37797EA2A8321ECDAD8)
Полное имя : D:\Video\То, что ты делаешь.1996.ExtCut.BDRip 1080p от msltel.мкВ
Формат : Matroska
Версия формата : Version 4
Размер файла : 23,6 Гбайт
Продолжительность : 2 ч. 27 м.
Общий поток : 22,9 Мбит/сек
Название фильма : Rip by msltel
Дата кодирования : UTC 2020-04-11 02:38:01
Программа кодирования : mkvmerge v8.2.0 ('World of Adventure') 64bit
Библиотека кодирования : libebml v1.3.1 + libmatroska v1.4.2

Видео
Идентификатор : 1
Формат : AVC
Формат/Информация : Advanced Video Codec
Профиль формата : High@L4.1
Настройки формата : CABAC / 4 Ref Frames
Параметр CABAC формата : Да
Параметр RefFrames формата : 4 кадра
Идентификатор кодека : V_MPEG4/ISO/AVC
Продолжительность : 2 ч. 27 м.
Битрейт : 19,6 Мбит/сек
Ширина : 1 920 пикселей
Высота : 1 036 пикселей
Соотношение сторон : 1,85:1
Режим частоты кадров : Постоянный
Частота кадров : 23,976 (24000/1001) кадра/сек
Цветовое пространство : YUV
Субдискретизация насыщенности : 4:2:0
Битовая глубина : 8 бит
Тип развёртки : Прогрессивная
Бит/(Пиксели*Кадры) : 0.411
Размер потока : 20,2 Гбайт (86%)
Библиотека кодирования : x264 core 159 r2991 1771b55
Настройки программы : cabac=1 / ref=4 / deblock=1:-2:-2 / analyse=0x3:0x113 / me=umh / subme=11 / psy=1 / psy_rd=1.00:0.15 / mixed_ref=1 / me_range=32 / chroma_me=1 / trellis=2 / 8x8dct=1 / cqm=0 / deadzone=21,11 / fast_pskip=0 / chroma_qp_offset=-3 / threads=6 / lookahead_threads=1 / sliced_threads=0 / NR=0 / Decimate=1 / interlaced=0 / bluray_compat=0 / constrained_intra=0 / bframes=16 / b_pyramid=2 / b_adapt=2 / b_bias=0 / direct=1 / weightb=1 / open_gop=0 / weightp=2 / keyint=230 / keyint_min=23 / scenecut=40 / intra_refresh=0 / rc_lookahead=40 / RC=CRF / mbtree=1 / CRF=18.0 / qcomp=0.60 / qpmin=0 / qpmax=69 / qpstep=4 / vbv_maxrate=50000 / vbv_bufsize=62500 / crf_max=0.0 / nal_hrd=none / filler=0 / ip_ratio=1.40 / aq=1: 1.00
Язык : English
Default : Да
Forced : Нет

Аудио #1
Идентификатор : 2
Формат : DTS
Формат/Информация : Digital Theater Systems
Идентификатор кодека : A_DTS
Продолжительность : 2 ч. 27 м.
Вид битрейта : Постоянный
Битрейт : 1 509 Кбит/сек
Каналы : 6 каналов
Расположение каналов: C L R Ls Rs LFE
Частота : 48,0 КГц
Частота кадров : 93,750 кадра/сек (512 SPF)
Битовая глубина : 24 бит
Метод сжатия : С потерями
Размер потока : 1,56 Гбайт (7%)
Заголовок : Юрий Сербин
Язык : Russian
Default : Да
Forced : Нет

Аудио #2
Идентификатор : 3
Формат : AC-3
Формат/Информация : Audio Coding 3
Коммерческое название : Dolby Digital
Идентификатор кодека : A_AC3
Продолжительность : 2 ч. 27 м.
Вид битрейта : Постоянный
Битрейт : 256 Кбит/сек
Каналы : 2 канала
Расположение каналов: L R
Частота : 48,0 КГц
Частота кадров : 31,250 кадров/сек (1536 SPF)
Метод сжатия : С потерями
Размер потока : 270 Мбайт (1%)
Заголовок : Алексей Яковлев
Язык : Russian
Вид обслуживания : полная основа
Default : Нет
Forced : Нет

Аудио #3
Идентификатор : 4
Формат : DTS
Формат/Информация : Digital Theater Systems
Идентификатор кодека : A_DTS
Продолжительность : 2 ч. 27 м.
Вид битрейта : Постоянный
Битрейт : 1 509 Кбит/сек
Каналы : 6 каналов
Расположение каналов: C L R Ls Rs LFE
Частота : 48,0 КГц
Частота кадров : 93,750 кадра/сек (512 SPF)
Битовая глубина : 24 бит
Метод сжатия : С потерями
Размер потока : 1,56 Гбайт (7%)
Заголовок : original
Язык : English
Default : Нет
Forced : Нет

Текст
Идентификатор : 5
Формат : UTF-8
Идентификатор кодека : S_TEXT/UTF8
Идентификатор кодека/Информация : UTF-8 Plain Text
Продолжительность : 2 ч. 26 м.
Битрейт : 74 бит/сек
Количество элементов : 2227
Размер потока : 79,7 Кбайт (0%)
Заголовок : английские
Язык : English
Default : Нет
Forced : Нет

Меню
00: 00: 00.000:: Глава 1
00: 03: 52.981:: Глава 2
00: 08: 34.179:: Глава 3
00: 11: 05.581:: Глава 4
00: 13: 20.090 :: Глава 5
00: 16: 13.846:: Глава 6
00: 18: 34.779:: Глава 7
00: 21: 12.395:: Глава 8
00: 24: 53.490:: Глава 9
00: 31: 15.957:: Глава 10
00: 33: 11.780:: Глава 11
00: 34: 33.277:: Глава 12
00: 35: 43.974:: Глава 13
00: 37: 04.472:: Глава 14
00: 41: 53.760:: Глава 15
00: 43: 41.242:: Глава 16
00: 46: 57.481:: Глава 17
00: 48: 19.186:: Глава 18
00: 56: 36.851:: Глава 19
01: 00: 15.110:: Глава 20
01: 06: 03.166:: Глава 21
01: 10: 18.671:: Глава 22
01: 14: 09.694:: Глава 23
01: 19: 28.387:: Глава 24
01: 22: 29.109:: Глава 25
01: 27: 02.926:: Глава 26
01: 32: 37.051:: Глава 27
01: 39: 29.546:: Глава 28
01: 40: 00.828:: Глава 29
01: 41: 17.154:: Глава 30
01: 42: 21.926:: Глава 31
01: 47: 48.377:: глава 32
01: 52: 46.009:: глава 33
01: 56: 49.002:: Глава 34
02: 00: 29.095 :: глава 35
02: 04: 28.168:: глава 36
02: 08: 35.582:: глава 37
02: 13: 38.135:: глава 38
02: 18: 39.977:: глава 39
02: 21: 12.212:: Глава 40
piratbit.pw



Скачать То, что ты делаешь через торрент https://d.radikal.ru/d26/2004/a5/dc50e59ec60c.jpg Скачать фильм То, что ты делаешь через торрент бесплантно в хорошем качестве О фильме: 1964 год. Молодой продавец магазина бытовой техники соглашается подменить получившего травму барабанщика группы на местном ... 5 10 1
Info! Золотая раздача, скачанное не засчитывается.
Торрент: Зарегистрирован [2020-04-11 06:06] · скачан: 3 раз
Статус: √ проверено
Размер: 23.56 GB
Как cкачать? Как скачать То, что ты делаешь через торрент | UTorrent

% Раздел Тема Автор DL S | L
Фильмы с авторской озвучкой [ 8.01 GB ] То что ты делаешь / That Thing You Do! [1996 музыка BDRip 720p by msltel] 2 x AVO | Расширенная версия msltel Скачать
1 | 0
Фильмы с авторской озвучкой [ 4.7 GB ] То что ты делаешь / That Thing You Do! [1996 музыка BDRip-AVC by msltel] 2 x AVO | Расширенная версия msltel Скачать
1 | 0

28-11-2019 20:33  

Отключить всю рекламу на сайте

    Дорогой пользователь! Огромная просьба, поблагодарите релизера, оцените раздачу и оставьте свои комментарий, если Вы скачали То, что ты делаешь через торрент бесплатно! Внесите свою лепту в развитие PiratBit!
    Комментировать посты могут только пользователи прошедшие не сложную регистрацию
    Показать сообщения:    

    То, что ты делаешь через торрент
    Скачать бесплатно То, что ты делаешь
    То, что ты делаешь скачать торрент
    То, что ты делаешь смотреть онлайн
    Cкачать фильм То, что ты делаешь бесплатно
    То, что ты делаешь скачать торрент в хорошем качестве
    То, что ты делаешь смотреть онлайн бесплатно в хорошем качестве


    Вы не можете начинать темы
    Вы не можете отвечать на сообщения
    Вы не можете редактировать свои сообщения
    Вы не можете удалять свои сообщения
    Вы не можете голосовать в опросах
    Вы не можете прикреплять файлы к сообщениям
    Вы можете скачивать файлы