Ссылка на приватное зеркало нашего сайта всего за 1$. Внимание количество ограничено!!!

2 сезон

iTunes

iTunes

1

iTunes

iTunes

iTunes

WEBRip

iTunes

30
pack

Новость дня

ВАЖНО

!!Акция!!

Alien_RageХит недели

RePack

Horizon Zero Dawn

ИГРА 18+

pack

RePack

jed

!!Акция!!

Alien_Rage

RePack

fifa19

RePack

Assassins Creed: Odyssey

RePack

NEED FOR SPEED™ PAYBACK

4 сезон

9 сезон

Бесстыжие 9 сезон

Все сериалы

все сериалы на PB.wtf

RePack

FAR CRY 5
  

Кома (Никита Аргунов) [2019, фантастика, фэнтези, боевик, приключения, BDRip-HEVC 1080p, (10 bit)] [GER Transfer / Лицензия] piratbit.pw

Кома через торрент piratbit.pw

Размер: 7.47 GB | Добавлен: 5 мес. 15 д. назад | Торрент скачан:119 раз
Скачать  

07-04-2020 07:42 Кома Скачать торрент  

Кома
Год выпуска: 2019
Страна: Россия
Студия: «Марс Медиа», Большое кино, Fresh Film, Киностудия Кит
Жанр: фантастика, фэнтези, боевик, приключения
Продолжительность: 01:50:52
Перевод: Не требуется | Лицензия
Субтитры: отсутствуют

Режиссер: Никита Аргунов

rating

В ролях: Риналь Мухаметов, Любовь Аксенова, Антон Пампушный, Милош Бикович, Константин Лавроненко, Полина Кузьминская, Ростислав Гулбис, Вилен Бабичев, Игорь Сигаев, Евгения Каратыгина

Описание: После таинственной и страшной аварии молодой, талантливый архитектор приходит в себя в очень странном мире, лишь частично похожем на реальность. Мире, который существует на основе памяти о реальности людей, находящихся в глубокой коме. Память человека фрагментарна, хаотична и непостоянна. Таково и пространство КОМЫ - причудливый набор из воспоминаний, в котором реки, ледники и города могут умещаться в одной комнате, где любые законы физики могут быть нарушены. Герою предстоит выяснить, по каким законам существует это пространство, бороться за жизнь, встретить любовь, найти, наконец, выход в реальный мир и осознать его по-новому, поняв, что такое КОМА на самом деле.

Качество: BDRip-HEVC 1080p | GER Transfer
Формат: MKV

Видео: HEVC/x.265, 1920x804, ~8999 Kbps, 10 bit
Аудио: 48 kHz, AC3, 5.1, 640 Kbps | RUS |
скриншот  
скриншот  скриншот  скриншот  скриншот  скриншот  

x265 info: frame I: 1371, Avg QP:18.48 kb/s: 23602.55
x265 info: frame P: 25319, Avg QP:19.61 kb/s: 16179.93
x265 info: frame B: 132957, Avg QP:21.77 kb/s: 7480.33
x265 info: Weighted P-Frames: Y:7.4% UV:6.0%
x265 info: consecutive B-frames: 7.6% 3.5% 5.2% 19.4% 9.7% 18.1% 8.0% 9.8% 5.0% 5.4% 2.8% 3.2% 2.5%
x265 info: encoded 159647 frames in 175545.23s (0.91 fps), 8998.49 kb/s, Avg QP:21.40


Формат : Matroska
Версия формата : Version 4
Размер файла : 7,47 Гбайт
Продолжительность : 1 ч. 50 м.
Общий поток : 9641 Кбит/сек
Название фильма : Кома (2020) [GER Transfer]
Дата кодирования : UTC 2020-04-07 06:43:38
Программа кодирования : mkvmerge v44.0.0 ('Domino') 64-bit
Библиотека кодирования : libebml v1.3.10 + libmatroska v1.5.2
Обложка : Yes
Attachments : cover.jpg

Видео
Идентификатор : 1
Формат : HEVC
Формат/Информация : High Efficiency Video Coding
Профиль формата : Main 10@L4.1@High
Идентификатор кодека : V_MPEGH/ISO/HEVC
Продолжительность : 1 ч. 50 м.
Битрейт : 8999 Кбит/сек
Ширина : 1920 пикселей
Высота : 804 пикселя
Соотношение сторон : 2,40:1
Режим частоты кадров : Постоянный
Частота кадров : 24,000 кадра/сек
Цветовое пространство : YUV
Субдискретизация насыщенности : 4:2:0
Битовая глубина : 10 бит
Бит/(Пиксели*Кадры) : 0.243
Размер потока : 6,97 Гбайт (93%)
Библиотека кодирования : x265 3.2+5-354901970679:[Windows][clang 8.0.1][64 bit] 10bit
Настройки программы : cpuid=1049583 / frame-threads=5 / numa-pools=4 / wpp / no-pmode / no-pme / no-psnr / no-ssim / log-level=3 / input-csp=1 / input-res=1920x804 / interlace=0 / total-frames=0 / level-idc=41 / high-tier=1 / uhd-bd=0 / ref=5 / allow-non-conformance / no-repeat-headers / annexb / no-aud / no-hrd / info / hash=0 / no-temporal-layers / open-gop / min-keyint=24 / keyint=240 / gop-lookahead=0 / bframes=12 / b-adapt=2 / b-pyramid / bframe-bias=0 / rc-lookahead=40 / lookahead-slices=5 / scenecut=40 / radl=0 / no-splice / no-intra-refresh / ctu=32 / min-cu-size=8 / rect / no-amp / max-tu-size=32 / tu-inter-depth=4 / tu-intra-depth=4 / limit-tu=1 / rdoq-level=1 / dynamic-rd=0.00 / no-ssim-rd / signhide / no-tskip / nr-intra=0 / nr-inter=0 / no-constrained-intra / no-strong-intra-smoothing / max-merge=5 / limit-refs=1 / no-limit-modes / me=3 / subme=7 / merange=57 / temporal-mvp / no-frame-dup / no-hme / weightp / no-weightb / no-analyze-src-pics / deblock=-3:-3 / no-sao / no-sao-non-deblock / rd=4 / selective-sao=0 / early-skip / no-rskip / no-fast-intra / no-tskip-fast / no-cu-lossless / b-intra / no-splitrd-skip / rdpenalty=0 / psy-rd=2.00 / psy-rdoq=1.00 / no-rd-refine / no-lossless / cbqpoffs=0 / crqpoffs=0 / rc=crf / crf=21.0 / qcomp=0.60 / qpstep=4 / stats-write=0 / stats-read=0 / vbv-maxrate=50000 / vbv-bufsize=50000 / vbv-init=0.9 / crf-max=0.0 / crf-min=0.0 / ipratio=1.40 / pbratio=1.30 / aq-mode=3 / aq-strength=1.00 / no-cutree / zone-count=0 / no-strict-cbr / qg-size=32 / no-rc-grain / qpmax=69 / qpmin=0 / no-const-vbv / sar=1 / overscan=0 / videoformat=5 / range=0 / colorprim=2 / transfer=2 / colormatrix=2 / chromaloc=0 / display-window=0 / cll=0,0 / min-luma=0 / max-luma=1023 / log2-max-poc-lsb=8 / vui-timing-info / vui-hrd-info / slices=1 / no-opt-qp-pps / no-opt-ref-list-length-pps / no-multi-pass-opt-rps / scenecut-bias=0.05 / no-opt-cu-delta-qp / no-aq-motion / no-hdr / no-hdr-opt / no-dhdr10-opt / no-idr-recovery-sei / analysis-reuse-level=5 / scale-factor=0 / refine-intra=0 / refine-inter=0 / refine-mv=1 / refine-ctu-distortion=0 / no-limit-sao / ctu-info=0 / no-lowpass-dct / refine-analysis-type=0 / copy-pic=1 / max-ausize-factor=1.0 / no-dynamic-refine / no-single-sei / no-hevc-aq / no-svt / no-field / qp-adaptation-range=1.00
Язык : German
Default : Да
Forced : Нет
Цветовой диапазон : Limited

Аудио
Идентификатор : 2
Формат : AC-3
Формат/Информация : Audio Coding 3
Коммерческое название : Dolby Digital
Идентификатор кодека : A_AC3
Продолжительность : 1 ч. 50 м.
Вид битрейта : Постоянный
Битрейт : 640 Кбит/сек
Каналы : 6 каналов
ChannelLayout : L R C LFE Ls Rs
Частота : 48,0 КГц
Частота кадров : 31,250 кадров/сек (1536 SPF)
Метод сжатия : С потерями
Размер потока : 508 Мбайт (7%)
Язык : Russian
Default : Да
Forced : Нет

Меню
00:00:00.000 : :Глава 01
00:12:43.417 : :Глава 02
00:18:44.667 : :Глава 03
00:27:36.375 : :Глава 04
00:34:27.542 : :Глава 05
00:44:20.375 : :Глава 06
00:49:26.500 : :Глава 07
00:57:33.375 : :Глава 08
01:05:32.167 : :Глава 09
01:13:06.083 : :Глава 10
01:23:10.167 : :Глава 11
01:29:08.333 : :Глава 12
01:34:09.667 : :Глава 13
01:40:00.750 : :Глава 14
01:43:39.958 : :Глава 15
01:46:51.042 : :Глава 16

piratbit.pw



Скачать Кома через торрент https://c.radikal.ru/c39/2004/9a/12ad5513002f.jpg Скачать фильм Кома через торрент бесплантно в хорошем качестве Описание: После таинственной и страшной аварии молодой, талантливый архитектор приходит в себя в очень странном мире, лишь частично похожем ... 9.5 10 6
Торрент: Зарегистрирован [2020-04-07 07:42] · скачан: 119 раз
Статус: √ проверено
Размер: 7.47 GB
Как cкачать? Как скачать Кома через торрент | qTorrent

% Раздел Тема Автор DL S | L
Порно фильмы с сюжетом [ 742 MB ] Salieri International Hot Team 7 / Горячая команда Сальери 7 [2006 Vignettes Anal Blowjob Solo DVDRip] Shmel Скачать
1 | 0
Фильмы 2001-2005 [ 2.19 GB ] Команда 49: Огненная лестница / Ladder 49 [2004 BDRip] -=BIGBOSS=- Скачать
1 | 0
Фильмы 2010 [ 1.46 GB ] Команда `А` / A-Team The [2010 ... HDRip] Venxxx Скачать
1 | 0
Детские отечественные фильмы [ 2.05 GB ] Тимур и его команда [1976 Детские . DVDRip] Pir@tya2010 Скачать
1 | 0
Развлекательные телепередачи и шоу, приколы и юмор [ 1.45 GB ] УРАЛЬСКИЕ ПЕЛЬМЕНИ Колдоебург / Uralskie pelmeni Koldoeburg [2008 юмор SATRip] Tes48 Скачать
1 | 0
Фильмы [HD 720p, 1080p] (Хороший звук DUB, MVO) [ 8.11 GB ] Команда «А» / The A-Team [2010 BDRip ] ACFIORENTINA Скачать
1 | 0
Иностранные мультфильмы [ 1.46 GB ] Клуб Микки Мауса. Выходные с Микки / Mickey Mouse Clubhouse: Mickey"s Big Splash/4 истории одним файлом [2009 Обучающие и развивающие мультфильмы DVDRip] МИХА~ Скачать
1 | 0

28-11-2019 20:33  

Отключить всю рекламу на сайте

    Дорогой пользователь! Огромная просьба, поблагодарите релизера, оцените раздачу и оставьте свои комментарий, если Вы скачали Кома через торрент бесплатно! Внесите свою лепту в развитие PiratBit!
    Комментировать посты могут только пользователи прошедшие не сложную регистрацию
    Показать сообщения:    

    Кома через торрент
    Скачать бесплатно Кома
    Кома скачать торрент
    Кома смотреть онлайн
    Cкачать фильм Кома бесплатно
    Кома скачать торрент в хорошем качестве
    Кома смотреть онлайн бесплатно в хорошем качестве


    Вы не можете начинать темы
    Вы не можете отвечать на сообщения
    Вы не можете редактировать свои сообщения
    Вы не можете удалять свои сообщения
    Вы не можете голосовать в опросах
    Вы не можете прикреплять файлы к сообщениям
    Вы можете скачивать файлы